  0
SECTION
  2
HEADER
  9
$ACADVER
  1
AC1015
  9
$ACADMAINTVER
 70
     6
  9
$DWGCODEPAGE
  3
ANSI_1252
  9
$INSBASE
 10
0.0
 20
0.0
 30
0.0
  9
$EXTMIN
 10
-0.00000000000011
 20
0.0
 30
0.0
  9
$EXTMAX
 10
297.0
 20
210.0000000000001
 30
0.0
  9
$LIMMIN
 10
0.0
 20
0.0
  9
$LIMMAX
 10
12.0
 20
9.0
  9
$ORTHOMODE
 70
     0
  9
$REGENMODE
 70
     1
  9
$FILLMODE
 70
     1
  9
$QTEXTMODE
 70
     0
  9
$MIRRTEXT
 70
     1
  9
$LTSCALE
 40
1.0
  9
$ATTMODE
 70
     1
  9
$TEXTSIZE
 40
0.2
  9
$TRACEWID
 40
0.05
  9
$TEXTSTYLE
  7
Standard
  9
$CLAYER
  8
0
  9
$CELTYPE
  6
ByLayer
  9
$CECOLOR
 62
   256
  9
$CELTSCALE
 40
1.0
  9
$DISPSILH
 70
     0
  9
$DIMSCALE
 40
1.0
  9
$DIMASZ
 40
0.18
  9
$DIMEXO
 40
0.0625
  9
$DIMDLI
 40
0.38
  9
$DIMRND
 40
0.0
  9
$DIMDLE
 40
0.0
  9
$DIMEXE
 40
0.18
  9
$DIMTP
 40
0.0
  9
$DIMTM
 40
0.0
  9
$DIMTXT
 40
0.18
  9
$DIMCEN
 40
0.09
  9
$DIMTSZ
 40
0.0
  9
$DIMTOL
 70
     0
  9
$DIMLIM
 70
     0
  9
$DIMTIH
 70
     1
  9
$DIMTOH
 70
     1
  9
$DIMSE1
 70
     0
  9
$DIMSE2
 70
     0
  9
$DIMTAD
 70
     0
  9
$DIMZIN
 70
     0
  9
$DIMBLK
  1

  9
$DIMASO
 70
     1
  9
$DIMSHO
 70
     1
  9
$DIMPOST
  1

  9
$DIMAPOST
  1

  9
$DIMALT
 70
     0
  9
$DIMALTD
 70
     2
  9
$DIMALTF
 40
25.4
  9
$DIMLFAC
 40
1.0
  9
$DIMTOFL
 70
     0
  9
$DIMTVP
 40
0.0
  9
$DIMTIX
 70
     0
  9
$DIMSOXD
 70
     0
  9
$DIMSAH
 70
     0
  9
$DIMBLK1
  1

  9
$DIMBLK2
  1

  9
$DIMSTYLE
  2
Standard
  9
$DIMCLRD
 70
     0
  9
$DIMCLRE
 70
     0
  9
$DIMCLRT
 70
     0
  9
$DIMTFAC
 40
1.0
  9
$DIMGAP
 40
0.09
  9
$DIMJUST
 70
     0
  9
$DIMSD1
 70
     0
  9
$DIMSD2
 70
     0
  9
$DIMTOLJ
 70
     1
  9
$DIMTZIN
 70
     0
  9
$DIMALTZ
 70
     0
  9
$DIMALTTZ
 70
     0
  9
$DIMUPT
 70
     0
  9
$DIMDEC
 70
     4
  9
$DIMTDEC
 70
     4
  9
$DIMALTU
 70
     2
  9
$DIMALTTD
 70
     2
  9
$DIMTXSTY
  7
Standard
  9
$DIMAUNIT
 70
     0
  9
$DIMADEC
 70
     0
  9
$DIMALTRND
 40
0.0
  9
$DIMAZIN
 70
     0
  9
$DIMDSEP
 70
    46
  9
$DIMATFIT
 70
     3
  9
$DIMFRAC
 70
     0
  9
$DIMLDRBLK
  1

  9
$DIMLUNIT
 70
     2
  9
$DIMLWD
 70
    -2
  9
$DIMLWE
 70
    -2
  9
$DIMTMOVE
 70
     0
  9
$LUNITS
 70
     2
  9
$LUPREC
 70
     4
  9
$SKETCHINC
 40
0.1
  9
$FILLETRAD
 40
0.5
  9
$AUNITS
 70
     0
  9
$AUPREC
 70
     0
  9
$MENU
  1
.
  9
$ELEVATION
 40
0.0
  9
$PELEVATION
 40
0.0
  9
$THICKNESS
 40
0.0
  9
$LIMCHECK
 70
     0
  9
$CHAMFERA
 40
0.5
  9
$CHAMFERB
 40
0.5
  9
$CHAMFERC
 40
1.0
  9
$CHAMFERD
 40
0.0
  9
$SKPOLY
 70
     0
  9
$TDCREATE
 40
2457163.637466296
  9
$TDUCREATE
 40
2457163.554132963
  9
$TDUPDATE
 40
2457163.637466655
  9
$TDUUPDATE
 40
2457163.554133322
  9
$TDINDWG
 40
0.0000000116
  9
$TDUSRTIMER
 40
0.0000000116
  9
$USRTIMER
 70
     1
  9
$ANGBASE
 50
0.0
  9
$ANGDIR
 70
     0
  9
$PDMODE
 70
     0
  9
$PDSIZE
 40
0.0
  9
$PLINEWID
 40
0.0
  9
$SPLFRAME
 70
     0
  9
$SPLINETYPE
 70
     6
  9
$SPLINESEGS
 70
     8
  9
$HANDSEED
  5
45E
  9
$SURFTAB1
 70
     6
  9
$SURFTAB2
 70
     6
  9
$SURFTYPE
 70
     6
  9
$SURFU
 70
     6
  9
$SURFV
 70
     6
  9
$UCSBASE
  2

  9
$UCSNAME
  2

  9
$UCSORG
 10
0.0
 20
0.0
 30
0.0
  9
$UCSXDIR
 10
1.0
 20
0.0
 30
0.0
  9
$UCSYDIR
 10
0.0
 20
1.0
 30
0.0
  9
$UCSORTHOREF
  2

  9
$UCSORTHOVIEW
 70
     0
  9
$UCSORGTOP
 10
0.0
 20
0.0
 30
0.0
  9
$UCSORGBOTTOM
 10
0.0
 20
0.0
 30
0.0
  9
$UCSORGLEFT
 10
0.0
 20
0.0
 30
0.0
  9
$UCSORGRIGHT
 10
0.0
 20
0.0
 30
0.0
  9
$UCSORGFRONT
 10
0.0
 20
0.0
 30
0.0
  9
$UCSORGBACK
 10
0.0
 20
0.0
 30
0.0
  9
$PUCSBASE
  2

  9
$PUCSNAME
  2

  9
$PUCSORG
 10
0.0
 20
0.0
 30
0.0
  9
$PUCSXDIR
 10
1.0
 20
0.0
 30
0.0
  9
$PUCSYDIR
 10
0.0
 20
1.0
 30
0.0
  9
$PUCSORTHOREF
  2

  9
$PUCSORTHOVIEW
 70
     0
  9
$PUCSORGTOP
 10
0.0
 20
0.0
 30
0.0
  9
$PUCSORGBOTTOM
 10
0.0
 20
0.0
 30
0.0
  9
$PUCSORGLEFT
 10
0.0
 20
0.0
 30
0.0
  9
$PUCSORGRIGHT
 10
0.0
 20
0.0
 30
0.0
  9
$PUCSORGFRONT
 10
0.0
 20
0.0
 30
0.0
  9
$PUCSORGBACK
 10
0.0
 20
0.0
 30
0.0
  9
$USERI1
 70
     0
  9
$USERI2
 70
     0
  9
$USERI3
 70
     0
  9
$USERI4
 70
     0
  9
$USERI5
 70
     0
  9
$USERR1
 40
18.1
  9
$USERR2
 40
0.0
  9
$USERR3
 40
0.0
  9
$USERR4
 40
0.0
  9
$USERR5
 40
0.0
  9
$WORLDVIEW
 70
     1
  9
$SHADEDGE
 70
     3
  9
$SHADEDIF
 70
    70
  9
$TILEMODE
 70
     1
  9
$MAXACTVP
 70
    64
  9
$PINSBASE
 10
0.0
 20
0.0
 30
0.0
  9
$PLIMCHECK
 70
     0
  9
$PEXTMIN
 10
1.00000000000000E+20
 20
1.00000000000000E+20
 30
1.00000000000000E+20
  9
$PEXTMAX
 10
-1.00000000000000E+20
 20
-1.00000000000000E+20
 30
-1.00000000000000E+20
  9
$PLIMMIN
 10
0.0
 20
0.0
  9
$PLIMMAX
 10
12.0
 20
9.0
  9
$UNITMODE
 70
     0
  9
$VISRETAIN
 70
     1
  9
$PLINEGEN
 70
     0
  9
$PSLTSCALE
 70
     1
  9
$TREEDEPTH
 70
  3020
  9
$CMLSTYLE
  2
Standard
  9
$CMLJUST
 70
     0
  9
$CMLSCALE
 40
1.0
  9
$PROXYGRAPHICS
 70
     1
  9
$MEASUREMENT
 70
     1
  9
$CELWEIGHT
370
    -1
  9
$ENDCAPS
280
     0
  9
$JOINSTYLE
280
     0
  9
$LWDISPLAY
290
     0
  9
$INSUNITS
 70
     4
  9
$HYPERLINKBASE
  1

  9
$STYLESHEET
  1

  9
$XEDIT
290
     1
  9
$CEPSNTYPE
380
     0
  9
$PSTYLEMODE
290
     1
  9
$FINGERPRINTGUID
  2
{95B9849D-DA3C-43B1-8374-0AC62D4B4EC7}
  9
$VERSIONGUID
  2
{FAEB1C32-E019-11D5-929B-00C0DF256EC4}
  9
$EXTNAMES
290
     1
  9
$PSVPSCALE
 40
0.0
  9
$OLESTARTUP
290
     0
  0
ENDSEC
  0
SECTION
  2
CLASSES
  0
CLASS
  1
ACDBDICTIONARYWDFLT
  2
AcDbDictionaryWithDefault
  3
ObjectDBX Classes
 90
        0
280
     0
281
     0
  0
CLASS
  1
VISUALSTYLE
  2
AcDbVisualStyle
  3
ObjectDBX Classes
 90
     4095
280
     0
281
     0
  0
CLASS
  1
MATERIAL
  2
AcDbMaterial
  3
ObjectDBX Classes
 90
     1153
280
     0
281
     0
  0
CLASS
  1
DICTIONARYVAR
  2
AcDbDictionaryVar
  3
ObjectDBX Classes
 90
        0
280
     0
281
     0
  0
CLASS
  1
ACDBPLACEHOLDER
  2
AcDbPlaceHolder
  3
ObjectDBX Classes
 90
        0
280
     0
281
     0
  0
CLASS
  1
LAYOUT
  2
AcDbLayout
  3
ObjectDBX Classes
 90
        0
280
     0
281
     0
  0
ENDSEC
  0
SECTION
  2
TABLES
  0
TABLE
  2
VPORT
  5
8
330
0
100
AcDbSymbolTable
 70
     1
  0
VPORT
  5
29
330
8
100
AcDbSymbolTableRecord
100
AcDbViewportTableRecord
  2
*Active
 70
     0
 10
0.0
 20
0.0
 11
1.0
 21
1.0
 12
148.4999999999999
 22
105.0000000000001
 13
0.0
 23
0.0
 14
0.5
 24
0.5
 15
0.5
 25
0.5
 16
0.0
 26
0.0
 36
1.0
 17
0.0
 27
0.0
 37
0.0
 40
231.0000000000001
 41
1.60267857142857
 42
50.0
 43
0.0
 44
0.0
 50
0.0
 51
0.0
 71
     0
 72
   100
 73
     1
 74
     3
 75
     0
 76
     0
 77
     0
 78
     0
281
     0
 65
     1
110
0.0
120
0.0
130
0.0
111
1.0
121
0.0
131
0.0
112
0.0
122
1.0
132
0.0
 79
     0
146
0.0
  0
ENDTAB
  0
TABLE
  2
LTYPE
  5
5
330
0
100
AcDbSymbolTable
 70
     8
  0
LTYPE
  5
14
330
5
100
AcDbSymbolTableRecord
100
AcDbLinetypeTableRecord
  2
ByBlock
 70
     0
  3

 72
    65
 73
     0
 40
0.0
  0
LTYPE
  5
15
330
5
100
AcDbSymbolTableRecord
100
AcDbLinetypeTableRecord
  2
ByLayer
 70
     0
  3

 72
    65
 73
     0
 40
0.0
  0
LTYPE
  5
16
330
5
100
AcDbSymbolTableRecord
100
AcDbLinetypeTableRecord
  2
Continuous
 70
     0
  3
Solid line
 72
    65
 73
     0
 40
0.0
  0
LTYPE
  5
3F
330
5
100
AcDbSymbolTableRecord
100
AcDbLinetypeTableRecord
  2
DASHED
 70
     0
  3
Dashed
 72
    65
 73
     2
 40
15.0
 49
7.0
 74
     0
 49
-8.0
 74
     0
  0
LTYPE
  5
40
330
5
100
AcDbSymbolTableRecord
100
AcDbLinetypeTableRecord
  2
DOTTED
 70
     0
  3
Dotted
 72
    65
 73
     2
 40
1.0
 49
0.0
 74
     0
 49
-1.0
 74
     0
  0
LTYPE
  5
41
330
5
100
AcDbSymbolTableRecord
100
AcDbLinetypeTableRecord
  2
DOT_CENTER
 70
     0
  3
Dot_Center
 72
    65
 73
     4
 40
14.0
 49
12.0
 74
     0
 49
-1.0
 74
     0
 49
0.0
 74
     0
 49
-1.0
 74
     0
  0
LTYPE
  5
42
330
5
100
AcDbSymbolTableRecord
100
AcDbLinetypeTableRecord
  2
LONG_DASHED
 70
     0
  3
Long_Dashed
 72
    65
 73
     2
 40
15.0
 49
10.0
 74
     0
 49
-5.0
 74
     0
  0
LTYPE
  5
43
330
5
100
AcDbSymbolTableRecord
100
AcDbLinetypeTableRecord
  2
DASH_CENTER
 70
     0
  3
Dash_Center
 72
    65
 73
     4
 40
14.0
 49
11.0
 74
     0
 49
-1.0
 74
     0
 49
1.0
 74
     0
 49
-1.0
 74
     0
  0
LTYPE
  5
44
330
5
100
AcDbSymbolTableRecord
100
AcDbLinetypeTableRecord
  2
PHANTOM
 70
     0
  3
Phantom
 72
    65
 73
     6
 40
13.0
 49
10.0
 74
     0
 49
-1.0
 74
     0
 49
0.0
 74
     0
 49
-1.0
 74
     0
 49
0.0
 74
     0
 49
-1.0
 74
     0
  0
LTYPE
  5
45
330
5
100
AcDbSymbolTableRecord
100
AcDbLinetypeTableRecord
  2
CENTER_DASH_DASH
 70
     0
  3
Center_Dash_Dash
 72
    65
 73
     6
 40
14.0
 49
9.0
 74
     0
 49
-1.0
 74
     0
 49
1.0
 74
     0
 49
-1.0
 74
     0
 49
1.0
 74
     0
 49
-1.0
 74
     0
  0
ENDTAB
  0
TABLE
  2
LAYER
  5
2
330
0
100
AcDbSymbolTable
 70
     2
  0
LAYER
  5
10
330
2
100
AcDbSymbolTableRecord
100
AcDbLayerTableRecord
  2
0
 70
     0
 62
     7
  6
Continuous
370
    -3
390
F
  0
LAYER
  5
46
330
2
100
AcDbSymbolTableRecord
100
AcDbLayerTableRecord
  2
1
 70
     0
 62
     7
  6
Continuous
370
    -3
390
F
  0
ENDTAB
  0
TABLE
  2
STYLE
  5
3
330
0
100
AcDbSymbolTable
 70
     4
  0
STYLE
  5
11
330
3
100
AcDbSymbolTableRecord
100
AcDbTextStyleTableRecord
  2
Standard
 70
     0
 40
0.0
 41
1.0
 50
0.0
 71
     0
 42
0.2
  3
txt
  4

  0
STYLE
  5
3D4
330
3
100
AcDbSymbolTableRecord
100
AcDbTextStyleTableRecord
  2
CONVERTER_11
 70
     0
 40
0.0
 41
1.2
 50
0.0
 71
     0
 42
0.2
  3
ARIAL.TTF
  4

  0
STYLE
  5
3D7
330
3
100
AcDbSymbolTableRecord
100
AcDbTextStyleTableRecord
  2
CONVERTER_12
 70
     0
 40
0.0
 41
1.38
 50
0.0
 71
     0
 42
0.2
  3
ARIAL.TTF
  4

  0
STYLE
  5
3DF
330
3
100
AcDbSymbolTableRecord
100
AcDbTextStyleTableRecord
  2
CONVERTER_13
 70
     0
 40
0.0
 41
0.95
 50
0.0
 71
     0
 42
0.2
  3
simplex.shx
  4

  0
ENDTAB
  0
TABLE
  2
VIEW
  5
6
330
0
100
AcDbSymbolTable
 70
     0
  0
ENDTAB
  0
TABLE
  2
UCS
  5
7
330
0
100
AcDbSymbolTable
 70
     0
  0
ENDTAB
  0
TABLE
  2
APPID
  5
9
330
0
100
AcDbSymbolTable
 70
     1
  0
APPID
  5
12
330
9
100
AcDbSymbolTableRecord
100
AcDbRegAppTableRecord
  2
ACAD
 70
     0
  0
ENDTAB
  0
TABLE
  2
DIMSTYLE
  5
A
330
0
100
AcDbSymbolTable
 70
     8
100
AcDbDimStyleTable
  0
DIMSTYLE
105
27
330
A
100
AcDbSymbolTableRecord
100
AcDbDimStyleTableRecord
  2
Standard
 70
     0
178
     0
340
11
  0
DIMSTYLE
105
3EB
102
{ACAD_REACTORS
330
3EC
102
}
330
A
100
AcDbSymbolTableRecord
100
AcDbDimStyleTableRecord
  2
ME10_DIM_10
 70
     0
 41
3.0
 42
0.5
 44
1.0
 73
     0
 74
     0
 77
     1
 78
     8
140
3.0
147
2.0
172
     1
173
     1
174
     1
175
     1
176
     7
177
     7
271
     2
178
     7
271
     2
340
3DF
  0
DIMSTYLE
105
3F6
102
{ACAD_REACTORS
330
3F7
102
}
330
A
100
AcDbSymbolTableRecord
100
AcDbDimStyleTableRecord
  2
ME10_DIM_11
 70
     0
 41
3.0
 42
0.5
 44
1.0
 73
     0
 74
     0
 77
     1
 78
     8
140
3.0
147
2.0
172
     1
173
     1
174
     1
175
     1
176
     7
177
     7
271
     2
178
     7
271
     2
340
3DF
  0
DIMSTYLE
105
401
102
{ACAD_REACTORS
330
402
102
}
330
A
100
AcDbSymbolTableRecord
100
AcDbDimStyleTableRecord
  2
ME10_DIM_12
 70
     0
 41
3.0
 42
0.5
 44
1.0
 73
     0
 74
     0
 77
     1
 78
     8
140
3.0
147
2.0
172
     1
173
     1
174
     1
175
     1
176
     7
177
     7
271
     2
178
     7
271
     2
340
3DF
  0
DIMSTYLE
105
40C
102
{ACAD_REACTORS
330
40D
102
}
330
A
100
AcDbSymbolTableRecord
100
AcDbDimStyleTableRecord
  2
ME10_DIM_13
 70
     0
 41
3.0
 42
0.5
 44
1.0
 73
     0
 74
     0
 77
     1
 78
     8
140
3.0
147
2.0
172
     1
173
     1
174
     1
175
     1
176
     7
177
     7
271
     2
178
     7
271
     2
340
3DF
  0
DIMSTYLE
105
417
102
{ACAD_REACTORS
330
418
102
}
330
A
100
AcDbSymbolTableRecord
100
AcDbDimStyleTableRecord
  2
ME10_DIM_14
 70
     0
 41
3.0
 42
0.5
 44
1.0
 73
     0
 74
     0
 77
     1
 78
     8
140
3.0
147
2.0
172
     1
173
     1
174
     1
175
     1
176
     7
177
     7
271
     2
178
     7
271
     2
340
3DF
  0
DIMSTYLE
105
422
102
{ACAD_REACTORS
330
423
102
}
330
A
100
AcDbSymbolTableRecord
100
AcDbDimStyleTableRecord
  2
ME10_DIM_15
 70
     0
 41
3.0
 42
0.5
 44
1.0
 73
     0
 74
     0
 77
     1
 78
     8
140
3.0
147
2.0
172
     1
173
     1
174
     1
175
     1
176
     7
177
     7
271
     2
178
     7
271
     2
340
3DF
  0
DIMSTYLE
105
42D
102
{ACAD_REACTORS
330
42E
102
}
330
A
100
AcDbSymbolTableRecord
100
AcDbDimStyleTableRecord
  2
ME10_DIM_16
 70
     0
 41
3.0
 42
0.5
 44
1.0
 73
     0
 74
     0
 77
     1
 78
     8
140
3.0
147
2.0
172
     1
173
     1
174
     1
175
     1
176
     7
177
     7
271
     2
178
     7
271
     2
340
3DF
  0
ENDTAB
  0
TABLE
  2
BLOCK_RECORD
  5
1
330
0
100
AcDbSymbolTable
 70
     9
  0
BLOCK_RECORD
  5
1F
330
1
100
AcDbSymbolTableRecord
100
AcDbBlockTableRecord
  2
*Model_Space
340
22
  0
BLOCK_RECORD
  5
1B
330
1
100
AcDbSymbolTableRecord
100
AcDbBlockTableRecord
  2
*Paper_Space
340
1E
  0
BLOCK_RECORD
  5
23
330
1
100
AcDbSymbolTableRecord
100
AcDbBlockTableRecord
  2
*Paper_Space0
340
26
  0
BLOCK_RECORD
  5
47
330
1
100
AcDbSymbolTableRecord
100
AcDbBlockTableRecord
  2
_dummy_frame
340
0
102
{BLKREFS
331
4A
102
}
  0
BLOCK_RECORD
  5
3E2
330
1
100
AcDbSymbolTableRecord
100
AcDbBlockTableRecord
  2
*D2
340
0
  0
BLOCK_RECORD
  5
3ED
330
1
100
AcDbSymbolTableRecord
100
AcDbBlockTableRecord
  2
*D3
340
0
  0
BLOCK_RECORD
  5
3F8
330
1
100
AcDbSymbolTableRecord
100
AcDbBlockTableRecord
  2
*D4
340
0
  0
BLOCK_RECORD
  5
403
330
1
100
AcDbSymbolTableRecord
100
AcDbBlockTableRecord
  2
*D5
340
0
  0
BLOCK_RECORD
  5
40E
330
1
100
AcDbSymbolTableRecord
100
AcDbBlockTableRecord
  2
*D6
340
0
  0
BLOCK_RECORD
  5
419
330
1
100
AcDbSymbolTableRecord
100
AcDbBlockTableRecord
  2
*D7
340
0
  0
BLOCK_RECORD
  5
424
330
1
100
AcDbSymbolTableRecord
100
AcDbBlockTableRecord
  2
*D8
340
0
  0
ENDTAB
  0
ENDSEC
  0
SECTION
  2
BLOCKS
  0
BLOCK
  5
20
330
1F
100
AcDbEntity
  8
0
100
AcDbBlockBegin
  2
*Model_Space
 70
     0
 10
0.0
 20
0.0
 30
0.0
  3
*Model_Space
  1

  0
ENDBLK
  5
21
330
1F
100
AcDbEntity
  8
0
100
AcDbBlockEnd
  0
BLOCK
  5
1C
330
1B
100
AcDbEntity
 67
     1
  8
0
100
AcDbBlockBegin
  2
*Paper_Space
 70
     0
 10
0.0
 20
0.0
 30
0.0
  3
*Paper_Space
  1

  0
ENDBLK
  5
1D
330
1B
100
AcDbEntity
 67
     1
  8
0
100
AcDbBlockEnd
  0
BLOCK
  5
24
330
23
100
AcDbEntity
  8
0
100
AcDbBlockBegin
  2
*Paper_Space0
 70
     0
 10
0.0
 20
0.0
 30
0.0
  3
*Paper_Space0
  1

  0
ENDBLK
  5
25
330
23
100
AcDbEntity
  8
0
100
AcDbBlockEnd
  0
BLOCK
  5
48
330
47
100
AcDbEntity
  8
0
100
AcDbBlockBegin
  2
_dummy_frame
 70
     0
 10
91.0277033482987
 20
5.00000000000001
 30
0.0
  3
_dummy_frame
  1

  0
POINT
  5
4B
330
47
100
AcDbEntity
  8
1
 62
     7
 60
     1
100
AcDbPoint
 10
91.0277033482987
 20
5.00000000000001
 30
0.0
  0
ENDBLK
  5
49
330
47
100
AcDbEntity
  8
0
100
AcDbBlockEnd
  0
BLOCK
  5
3E9
330
3E2
100
AcDbEntity
  8
0
100
AcDbBlockBegin
  2
*D2
 70
     1
 10
0.0
 20
0.0
 30
0.0
  3
*D2
  1

  0
LINE
  5
3E3
330
3E2
100
AcDbEntity
  8
1
  6
Continuous
 62
     7
100
AcDbLine
 10
210.3773347032661
 20
174.5
 30
0.0
 11
263.1071898400911
 21
174.5
 31
0.0
  0
LINE
  5
3E4
330
3E2
100
AcDbEntity
  8
1
  6
Continuous
 62
     7
100
AcDbLine
 10
263.1071898400911
 20
117.1297438241738
 30
0.0
 11
263.1071898400911
 21
175.5
 31
0.0
  0
LINE
  5
3E5
330
3E2
100
AcDbEntity
  8
1
  6
Continuous
 62
     7
100
AcDbLine
 10
210.3773347032661
 20
128.2297438241743
 30
0.0
 11
210.3773347032661
 21
175.5
 31
0.0
  0
SOLID
  5
3E6
330
3E2
100
AcDbEntity
  8
1
 62
     7
100
AcDbTrace
 10
213.3773347032661
 20
174.8949574927622
 30
0.0
 11
213.3773347032661
 21
174.1050425072378
 31
0.0
 12
210.3773347032661
 22
174.5
 32
0.0
 13
210.3773347032661
 23
174.5
 33
0.0
  0
SOLID
  5
3E7
330
3E2
100
AcDbEntity
  8
1
 62
     7
100
AcDbTrace
 10
260.1071898400911
 20
174.1050425072378
 30
0.0
 11
260.1071898400911
 21
174.8949574927622
 31
0.0
 12
263.1071898400911
 22
174.5
 32
0.0
 13
263.1071898400911
 23
174.5
 33
0.0
  0
MTEXT
  5
3E8
330
3E2
100
AcDbEntity
  8
1
 62
     7
100
AcDbMText
 10
234.4922622716786
 20
176.5
 30
0.0
 40
3.0
 41
0.0
 71
     7
 72
     1
  1
55
  7
CONVERTER_13
 11
0.9999999999970619
 21
2.424068405545306E-6
 31
0.0
 73
     1
 44
0.60024009603842
  0
ENDBLK
  5
3EA
330
3E2
100
AcDbEntity
  8
0
100
AcDbBlockEnd
  0
BLOCK
  5
3F4
330
3ED
100
AcDbEntity
  8
0
100
AcDbBlockBegin
  2
*D3
 70
     1
 10
0.0
 20
0.0
 30
0.0
  3
*D3
  1

  0
LINE
  5
3EE
330
3ED
100
AcDbEntity
  8
1
  6
Continuous
 62
     7
100
AcDbLine
 10
239.7773347032661
 20
160.2297438241723
 30
0.0
 11
210.3773347032661
 21
160.2297438241723
 31
0.0
  0
LINE
  5
3EF
330
3ED
100
AcDbEntity
  8
1
  6
Continuous
 62
     7
100
AcDbLine
 10
210.3773347032661
 20
128.2297438241743
 30
0.0
 11
210.3773347032661
 21
161.2297438241723
 31
0.0
  0
LINE
  5
3F0
330
3ED
100
AcDbEntity
  8
1
  6
Continuous
 62
     7
100
AcDbLine
 10
239.7773347032661
 20
124.5766212706768
 30
0.0
 11
239.7773347032661
 21
161.2297438241723
 31
0.0
  0
SOLID
  5
3F1
330
3ED
100
AcDbEntity
  8
1
 62
     7
100
AcDbTrace
 10
236.7773347032661
 20
159.8347863314101
 30
0.0
 11
236.7773347032661
 21
160.6247013169345
 31
0.0
 12
239.7773347032661
 22
160.2297438241723
 32
0.0
 13
239.7773347032661
 23
160.2297438241723
 33
0.0
  0
SOLID
  5
3F2
330
3ED
100
AcDbEntity
  8
1
 62
     7
100
AcDbTrace
 10
213.3773347032661
 20
160.6247013169345
 30
0.0
 11
213.3773347032661
 21
159.8347863314101
 31
0.0
 12
210.3773347032661
 22
160.2297438241723
 32
0.0
 13
210.3773347032661
 23
160.2297438241723
 33
0.0
  0
MTEXT
  5
3F3
330
3ED
100
AcDbEntity
  8
1
 62
     7
100
AcDbMText
 10
220.9523347032661
 20
162.5297438241723
 30
0.0
 40
3.0
 41
0.0
 71
     7
 72
     1
  1
29,3
  7
CONVERTER_13
 11
0.9999999999970619
 21
2.424068405545306E-6
 31
0.0
 73
     1
 44
0.60024009603842
  0
ENDBLK
  5
3F5
330
3ED
100
AcDbEntity
  8
0
100
AcDbBlockEnd
  0
BLOCK
  5
3FF
330
3F8
100
AcDbEntity
  8
0
100
AcDbBlockBegin
  2
*D4
 70
     1
 10
0.0
 20
0.0
 30
0.0
  3
*D4
  1

  0
LINE
  5
3F9
330
3F8
100
AcDbEntity
  8
1
  6
Continuous
 62
     7
100
AcDbLine
 10
194.338125933392
 20
86.22974382417428
 30
0.0
 11
194.338125933392
 21
127.7297438241743
 31
0.0
  0
LINE
  5
3FA
330
3F8
100
AcDbEntity
  8
1
  6
Continuous
 62
     7
100
AcDbLine
 10
209.8773347032661
 20
127.7297438241743
 30
0.0
 11
193.338125933392
 21
127.7297438241743
 31
0.0
  0
LINE
  5
3FB
330
3F8
100
AcDbEntity
  8
1
  6
Continuous
 62
     7
100
AcDbLine
 10
216.3773347032661
 20
86.22974382417428
 30
0.0
 11
193.338125933392
 21
86.22974382417428
 31
0.0
  0
SOLID
  5
3FC
330
3F8
100
AcDbEntity
  8
1
 62
     7
100
AcDbTrace
 10
193.9431684406298
 20
89.22974382417428
 30
0.0
 11
194.7330834261542
 21
89.22974382417428
 31
0.0
 12
194.338125933392
 22
86.22974382417428
 32
0.0
 13
194.338125933392
 23
86.22974382417428
 33
0.0
  0
SOLID
  5
3FD
330
3F8
100
AcDbEntity
  8
1
 62
     7
100
AcDbTrace
 10
194.7330834261542
 20
124.7297438241743
 30
0.0
 11
193.9431684406298
 21
124.7297438241743
 31
0.0
 12
194.338125933392
 22
127.7297438241743
 32
0.0
 13
194.338125933392
 23
127.7297438241743
 33
0.0
  0
MTEXT
  5
3FE
330
3F8
100
AcDbEntity
  8
1
 62
     7
100
AcDbMText
 10
192.038125933392
 20
103.3047438241743
 30
0.0
 40
3.0
 41
0.0
 71
     7
 72
     1
  1
41,5
  7
CONVERTER_13
 11
0.0
 21
1.0
 31
0.0
 73
     1
 44
0.60024009603842
  0
ENDBLK
  5
400
330
3F8
100
AcDbEntity
  8
0
100
AcDbBlockEnd
  0
BLOCK
  5
40A
330
403
100
AcDbEntity
  8
0
100
AcDbBlockBegin
  2
*D5
 70
     1
 10
0.0
 20
0.0
 30
0.0
  3
*D5
  1

  0
LINE
  5
404
330
403
100
AcDbEntity
  8
1
  6
Continuous
 62
     7
100
AcDbLine
 10
177.9526899480449
 20
68.72974382417425
 30
0.0
 11
177.9526899480449
 21
127.7297438241743
 31
0.0
  0
LINE
  5
405
330
403
100
AcDbEntity
  8
1
  6
Continuous
 62
     7
100
AcDbLine
 10
209.877334703266
 20
127.7297438241743
 30
0.0
 11
176.9526899480449
 21
127.7297438241743
 31
0.0
  0
LINE
  5
406
330
403
100
AcDbEntity
  8
1
  6
Continuous
 62
     7
100
AcDbLine
 10
214.0684099247687
 20
68.72974382417425
 30
0.0
 11
176.9526899480449
 21
68.72974382417425
 31
0.0
  0
SOLID
  5
407
330
403
100
AcDbEntity
  8
1
 62
     7
100
AcDbTrace
 10
177.5577324552827
 20
71.72974382417425
 30
0.0
 11
178.3476474408071
 21
71.72974382417425
 31
0.0
 12
177.9526899480449
 22
68.72974382417425
 32
0.0
 13
177.9526899480449
 23
68.72974382417425
 33
0.0
  0
SOLID
  5
408
330
403
100
AcDbEntity
  8
1
 62
     7
100
AcDbTrace
 10
178.3476474408071
 20
124.7297438241743
 30
0.0
 11
177.5577324552827
 21
124.7297438241743
 31
0.0
 12
177.9526899480449
 22
127.7297438241743
 32
0.0
 13
177.9526899480449
 23
127.7297438241743
 33
0.0
  0
MTEXT
  5
409
330
403
100
AcDbEntity
  8
1
 62
     7
100
AcDbMText
 10
175.9526899480449
 20
95.97974382417428
 30
0.0
 40
3.0
 41
0.0
 71
     7
 72
     1
  1
59
  7
CONVERTER_13
 11
0.0
 21
1.0
 31
0.0
 73
     1
 44
0.60024009603842
  0
ENDBLK
  5
40B
330
403
100
AcDbEntity
  8
0
100
AcDbBlockEnd
  0
BLOCK
  5
415
330
40E
100
AcDbEntity
  8
0
100
AcDbBlockBegin
  2
*D6
 70
     1
 10
0.0
 20
0.0
 30
0.0
  3
*D6
  1

  0
LINE
  5
40F
330
40E
100
AcDbEntity
  8
1
  6
Continuous
 62
     7
100
AcDbLine
 10
146.8773341106979
 20
175.2297438241723
 30
0.0
 11
55.47733411069774
 21
175.2297438241723
 31
0.0
  0
LINE
  5
410
330
40E
100
AcDbEntity
  8
1
  6
Continuous
 62
     7
100
AcDbLine
 10
55.47733411069774
 20
145.2297438241723
 30
0.0
 11
55.47733411069774
 21
176.2297438241723
 31
0.0
  0
LINE
  5
411
330
40E
100
AcDbEntity
  8
1
  6
Continuous
 62
     7
100
AcDbLine
 10
146.8773341106979
 20
145.2297438241723
 30
0.0
 11
146.8773341106979
 21
176.2297438241723
 31
0.0
  0
SOLID
  5
412
330
40E
100
AcDbEntity
  8
1
 62
     7
100
AcDbTrace
 10
143.8773341106979
 20
174.8347863314101
 30
0.0
 11
143.8773341106979
 21
175.6247013169345
 31
0.0
 12
146.8773341106979
 22
175.2297438241723
 32
0.0
 13
146.8773341106979
 23
175.2297438241723
 33
0.0
  0
SOLID
  5
413
330
40E
100
AcDbEntity
  8
1
 62
     7
100
AcDbTrace
 10
58.47733411069774
 20
175.6247013169345
 30
0.0
 11
58.47733411069774
 21
174.8347863314101
 31
0.0
 12
55.47733411069774
 22
175.2297438241723
 32
0.0
 13
55.47733411069774
 23
175.2297438241723
 33
0.0
  0
MTEXT
  5
414
330
40E
100
AcDbEntity
  8
1
 62
     7
100
AcDbMText
 10
97.5023341106978
 20
177.5297438241723
 30
0.0
 40
3.0
 41
0.0
 71
     7
 72
     1
  1
91,5
  7
CONVERTER_13
 11
0.9999999999970619
 21
2.424068405545306E-6
 31
0.0
 73
     1
 44
0.60024009603842
  0
ENDBLK
  5
416
330
40E
100
AcDbEntity
  8
0
100
AcDbBlockEnd
  0
BLOCK
  5
420
330
419
100
AcDbEntity
  8
0
100
AcDbBlockBegin
  2
*D7
 70
     1
 10
0.0
 20
0.0
 30
0.0
  3
*D7
  1

  0
LINE
  5
41A
330
419
100
AcDbEntity
  8
1
  6
Continuous
 62
     7
100
AcDbLine
 10
61.4773345774382
 20
160.2297438241723
 30
0.0
 11
140.8773345774382
 21
160.2297438241723
 31
0.0
  0
LINE
  5
41B
330
419
100
AcDbEntity
  8
1
  6
Continuous
 62
     7
100
AcDbLine
 10
140.8773345774382
 20
127.2876505441709
 30
0.0
 11
140.8773345774382
 21
161.2297438241723
 31
0.0
  0
LINE
  5
41C
330
419
100
AcDbEntity
  8
1
  6
Continuous
 62
     7
100
AcDbLine
 10
61.4773345774382
 20
127.2876514798212
 30
0.0
 11
61.4773345774382
 21
161.2297438241723
 31
0.0
  0
SOLID
  5
41D
330
419
100
AcDbEntity
  8
1
 62
     7
100
AcDbTrace
 10
64.4773345774382
 20
160.6247013169345
 30
0.0
 11
64.4773345774382
 21
159.8347863314101
 31
0.0
 12
61.4773345774382
 22
160.2297438241723
 32
0.0
 13
61.4773345774382
 23
160.2297438241723
 33
0.0
  0
SOLID
  5
41E
330
419
100
AcDbEntity
  8
1
 62
     7
100
AcDbTrace
 10
137.8773345774382
 20
159.8347863314101
 30
0.0
 11
137.8773345774382
 21
160.6247013169345
 31
0.0
 12
140.8773345774382
 22
160.2297438241723
 32
0.0
 13
140.8773345774382
 23
160.2297438241723
 33
0.0
  0
MTEXT
  5
41F
330
419
100
AcDbEntity
  8
1
 62
     7
100
AcDbMText
 10
97.0523345774382
 20
162.5297438241723
 30
0.0
 40
3.0
 41
0.0
 71
     7
 72
     1
  1
79,4
  7
CONVERTER_13
 11
0.9999999999970619
 21
2.424068405545306E-6
 31
0.0
 73
     1
 44
0.60024009603842
  0
ENDBLK
  5
421
330
419
100
AcDbEntity
  8
0
100
AcDbBlockEnd
  0
BLOCK
  5
42B
330
424
100
AcDbEntity
  8
0
100
AcDbBlockBegin
  2
*D8
 70
     1
 10
0.0
 20
0.0
 30
0.0
  3
*D8
  1

  0
LINE
  5
425
330
424
100
AcDbEntity
  8
1
  6
Continuous
 62
     7
100
AcDbLine
 10
92.1773345774382
 20
49.9373227280333
 30
0.0
 11
110.1773345774382
 21
49.9373227280333
 31
0.0
  0
LINE
  5
426
330
424
100
AcDbEntity
  8
1
  6
Continuous
 62
     7
100
AcDbLine
 10
110.1773345774382
 20
68.22974382417428
 30
0.0
 11
110.1773345774382
 21
48.9373227280333
 31
0.0
  0
LINE
  5
427
330
424
100
AcDbEntity
  8
1
  6
Continuous
 62
     7
100
AcDbLine
 10
92.1773345774382
 20
68.32974382417427
 30
0.0
 11
92.1773345774382
 21
48.9373227280333
 31
0.0
  0
SOLID
  5
428
330
424
100
AcDbEntity
  8
1
 62
     7
100
AcDbTrace
 10
95.1773345774382
 20
50.33228022079549
 30
0.0
 11
95.1773345774382
 21
49.54236523527111
 31
0.0
 12
92.1773345774382
 22
49.9373227280333
 32
0.0
 13
92.1773345774382
 23
49.9373227280333
 33
0.0
  0
SOLID
  5
429
330
424
100
AcDbEntity
  8
1
 62
     7
100
AcDbTrace
 10
107.1773345774382
 20
49.54236523527111
 30
0.0
 11
107.1773345774382
 21
50.33228022079549
 31
0.0
 12
110.1773345774382
 22
49.9373227280333
 32
0.0
 13
110.1773345774382
 23
49.9373227280333
 33
0.0
  0
MTEXT
  5
42A
330
424
100
AcDbEntity
  8
1
 62
     7
100
AcDbMText
 10
96.5273345774382
 20
51.9373227280333
 30
0.0
 40
3.0
 41
0.0
 71
     7
 72
     1
  1
PG16
  7
CONVERTER_13
 11
0.9999999999970619
 21
2.424068405545306E-6
 31
0.0
 73
     1
 44
0.60024009603842
  0
ENDBLK
  5
42C
330
424
100
AcDbEntity
  8
0
100
AcDbBlockEnd
  0
ENDSEC
  0
SECTION
  2
ENTITIES
  0
INSERT
  5
4A
330
1F
100
AcDbEntity
  8
1
100
AcDbBlockReference
  2
_dummy_frame
 10
91.0277033482987
 20
5.00000000000001
 30
0.0
  0
LINE
  5
4C
330
1F
100
AcDbEntity
  8
1
  6
Continuous
 62
     7
100
AcDbLine
 10
108.0
 20
4.99999999999989
 30
0.0
 11
108.0
 21
40.0
 31
0.0
  0
LINE
  5
4D
330
1F
100
AcDbEntity
  8
1
  6
Continuous
 62
     7
100
AcDbLine
 10
108.0
 20
20.0
 30
0.0
 11
292.0
 21
20.0
 31
0.0
  0
LINE
  5
4E
330
1F
100
AcDbEntity
  8
1
  6
Continuous
 62
     7
100
AcDbLine
 10
4.99999999999977
 20
189.0
 30
0.0
 11
4.99999999999977
 21
5.0
 31
0.0
  0
LINE
  5
4F
330
1F
100
AcDbEntity
  8
1
  6
Continuous
 62
     7
100
AcDbLine
 10
133.0000000000001
 20
35.0
 30
0.0
 11
133.0000000000001
 21
40.0
 31
0.0
  0
LINE
  5
50
330
1F
100
AcDbEntity
  8
1
  6
Continuous
 62
     7
100
AcDbLine
 10
115.0
 20
35.0
 30
0.0
 11
115.0
 21
40.0
 31
0.0
  0
LINE
  5
51
330
1F
100
AcDbEntity
  8
1
  6
Continuous
 62
     7
100
AcDbLine
 10
108.0
 20
40.0
 30
0.0
 11
292.0
 21
40.0
 31
0.0
  0
LINE
  5
52
330
1F
100
AcDbEntity
  8
1
  6
Continuous
 62
     7
100
AcDbLine
 10
133.0000000000001
 20
30.0
 30
0.0
 11
133.0000000000001
 21
35.0
 31
0.0
  0
LINE
  5
53
330
1F
100
AcDbEntity
  8
1
  6
Continuous
 62
     7
100
AcDbLine
 10
115.0
 20
30.0
 30
0.0
 11
115.0
 21
35.0
 31
0.0
  0
LINE
  5
54
330
1F
100
AcDbEntity
  8
1
  6
Continuous
 62
     7
100
AcDbLine
 10
108.0
 20
35.0
 30
0.0
 11
292.0
 21
35.0
 31
0.0
  0
LINE
  5
55
330
1F
100
AcDbEntity
  8
1
  6
Continuous
 62
     7
100
AcDbLine
 10
133.0000000000001
 20
25.0
 30
0.0
 11
133.0000000000001
 21
30.0
 31
0.0
  0
LINE
  5
56
330
1F
100
AcDbEntity
  8
1
  6
Continuous
 62
     7
100
AcDbLine
 10
115.0
 20
25.0
 30
0.0
 11
115.0
 21
30.0
 31
0.0
  0
LINE
  5
57
330
1F
100
AcDbEntity
  8
1
  6
Continuous
 62
     7
100
AcDbLine
 10
108.0
 20
30.0
 30
0.0
 11
292.0
 21
30.0
 31
0.0
  0
LINE
  5
58
330
1F
100
AcDbEntity
  8
1
  6
Continuous
 62
     7
100
AcDbLine
 10
133.0000000000001
 20
20.0
 30
0.0
 11
133.0000000000001
 21
25.0
 31
0.0
  0
LINE
  5
59
330
1F
100
AcDbEntity
  8
1
  6
Continuous
 62
     7
100
AcDbLine
 10
115.0
 20
20.0
 30
0.0
 11
115.0
 21
25.0
 31
0.0
  0
LINE
  5
5A
330
1F
100
AcDbEntity
  8
1
  6
Continuous
 62
     7
100
AcDbLine
 10
108.0
 20
25.0
 30
0.0
 11
292.0
 21
25.0
 31
0.0
  0
LINE
  5
5B
102
{ACAD_REACTORS
330
42F
102
}
330
1F
100
AcDbEntity
  8
1
  6
Continuous
 62
     7
100
AcDbLine
 10
282.8428748399058
 20
10.55800208038033
 30
0.0
 11
281.5095415065725
 21
9.78877131114973
 31
0.0
  0
LINE
  5
5C
102
{ACAD_REACTORS
330
42F
102
}
330
1F
100
AcDbEntity
  8
1
  6
Continuous
 62
     7
100
AcDbLine
 10
281.6763006887427
 20
10.65463653264794
 30
0.0
 11
282.5097265375795
 21
11.13545913774624
 31
0.0
  0
LINE
  5
5D
102
{ACAD_REACTORS
330
42F
102
}
330
1F
100
AcDbEntity
  8
1
  6
Continuous
 62
     7
100
AcDbLine
 10
281.6763006887427
 20
12.16666666666663
 30
0.0
 11
281.6763006887427
 21
10.65463653264794
 31
0.0
  0
LINE
  5
5E
102
{ACAD_REACTORS
330
42F
102
}
330
1F
100
AcDbEntity
  8
1
  6
Continuous
 62
     7
100
AcDbLine
 10
282.6763006887427
 20
12.16666666666663
 30
0.0
 11
281.6763006887427
 21
12.16666666666663
 31
0.0
  0
LINE
  5
5F
102
{ACAD_REACTORS
330
42F
102
}
330
1F
100
AcDbEntity
  8
1
  6
Continuous
 62
     7
100
AcDbLine
 10
281.6763006887427
 20
12.83333333333326
 30
0.0
 11
282.6763006887427
 21
12.83333333333326
 31
0.0
  0
LINE
  5
60
102
{ACAD_REACTORS
330
42F
102
}
330
1F
100
AcDbEntity
  8
1
  6
Continuous
 62
     7
100
AcDbLine
 10
281.6763006887427
 20
14.34536346735195
 30
0.0
 11
281.6763006887427
 21
12.83333333333326
 31
0.0
  0
LINE
  5
61
102
{ACAD_REACTORS
330
42F
102
}
330
1F
100
AcDbEntity
  8
1
  6
Continuous
 62
     7
100
AcDbLine
 10
282.5097265375795
 20
13.86454086225376
 30
0.0
 11
281.6763006887427
 21
14.34536346735195
 31
0.0
  0
LINE
  5
62
102
{ACAD_REACTORS
330
42F
102
}
330
1F
100
AcDbEntity
  8
1
  6
Continuous
 62
     7
100
AcDbLine
 10
281.5095415065725
 20
15.21122868885027
 30
0.0
 11
282.8428748399058
 21
14.44199791961944
 31
0.0
  0
LINE
  5
63
102
{ACAD_REACTORS
330
430
102
}
330
1F
100
AcDbEntity
  8
1
  6
Continuous
 62
     7
100
AcDbLine
 10
274.3429673554093
 20
10.84673060906323
 30
0.0
 11
274.3429673554093
 21
14.15326939093666
 31
0.0
  0
LINE
  5
64
102
{ACAD_REACTORS
330
430
102
}
330
1F
100
AcDbEntity
  8
1
  6
Continuous
 62
     7
100
AcDbLine
 10
275.0096340220759
 20
11.0392519172633
 30
0.0
 11
275.0096340220759
 21
10.84673060906323
 31
0.0
  0
LINE
  5
65
102
{ACAD_REACTORS
330
430
102
}
330
1F
100
AcDbEntity
  8
1
  6
Continuous
 62
     7
100
AcDbLine
 10
275.0096340220759
 20
14.15326939093666
 30
0.0
 11
275.0096340220759
 21
11.0392519172633
 31
0.0
  0
LINE
  5
66
102
{ACAD_REACTORS
330
431
102
}
330
1F
100
AcDbEntity
  8
1
  6
Continuous
 62
     7
100
AcDbLine
 10
278.1763932042461
 20
8.44261746499581
 30
0.0
 11
276.009819053083
 21
9.69256409066691
 31
0.0
  0
LINE
  5
67
102
{ACAD_REACTORS
330
431
102
}
330
1F
100
AcDbEntity
  8
1
  6
Continuous
 62
     7
100
AcDbLine
 10
276.3429673554093
 20
10.2700211480327
 30
0.0
 11
278.5095415065725
 21
9.0200745223616
 31
0.0
  0
LINE
  5
68
102
{ACAD_REACTORS
330
431
102
}
330
1F
100
AcDbEntity
  8
1
  6
Continuous
 62
     7
100
AcDbLine
 10
276.3429673554093
 20
14.92250016016737
 30
0.0
 11
276.3429673554093
 21
10.2700211480327
 31
0.0
  0
LINE
  5
69
102
{ACAD_REACTORS
330
431
102
}
330
1F
100
AcDbEntity
  8
1
  6
Continuous
 62
     7
100
AcDbLine
 10
275.6763006887427
 20
10.27002114803258
 30
0.0
 11
275.6763006887427
 21
14.92250016016737
 31
0.0
  0
LINE
  5
6A
102
{ACAD_REACTORS
330
432
102
}
330
1F
100
AcDbEntity
  8
1
  6
Continuous
 62
     7
100
AcDbLine
 10
279.848533671786
 20
15.86370041827229
 30
0.0
 11
278.6763006887427
 21
13.83333333333326
 31
0.0
  0
LINE
  5
6B
102
{ACAD_REACTORS
330
432
102
}
330
1F
100
AcDbEntity
  8
1
  6
Continuous
 62
     7
100
AcDbLine
 10
280.3429673554093
 20
9.3082690706018
 30
0.0
 11
280.3429673554093
 21
15.73121731203457
 31
0.0
  0
LINE
  5
6C
102
{ACAD_REACTORS
330
432
102
}
330
1F
100
AcDbEntity
  8
1
  6
Continuous
 62
     7
100
AcDbLine
 10
279.6763006887427
 20
12.5
 30
0.0
 11
279.6763006887427
 21
9.3082690706018
 31
0.0
  0
LINE
  5
6D
102
{ACAD_REACTORS
330
432
102
}
330
1F
100
AcDbEntity
  8
1
  6
Continuous
 62
     7
100
AcDbLine
 10
277.6763006887427
 20
10.84758507263291
 30
0.0
 11
277.6763006887427
 21
12.5
 31
0.0
  0
LINE
  5
6E
102
{ACAD_REACTORS
330
432
102
}
330
1F
100
AcDbEntity
  8
1
  6
Continuous
 62
     7
100
AcDbLine
 10
277.0096340220759
 20
12.5
 30
0.0
 11
277.0096340220759
 21
10.84758507263291
 31
0.0
  0
LINE
  5
6F
102
{ACAD_REACTORS
330
432
102
}
330
1F
100
AcDbEntity
  8
1
  6
Continuous
 62
     7
100
AcDbLine
 10
277.5040677056994
 20
15.86370041827229
 30
0.0
 11
278.6763006887427
 21
13.83333333333326
 31
0.0
  0
LINE
  5
70
102
{ACAD_REACTORS
330
432
102
}
330
1F
100
AcDbEntity
  8
1
  6
Continuous
 62
     7
100
AcDbLine
 10
277.0096340220759
 20
12.5
 30
0.0
 11
277.0096340220759
 21
15.73121731203457
 31
0.0
  0
LINE
  5
71
330
1F
100
AcDbEntity
  8
1
  6
Continuous
 62
     7
100
AcDbLine
 10
278.6763006887427
 20
7.5
 30
0.0
 11
270.2598654136011
 21
12.35563573565855
 31
0.0
  0
LINE
  5
72
330
1F
100
AcDbEntity
  8
1
  6
Continuous
 62
     7
100
AcDbLine
 10
287.0927359638841
 20
12.35563573565855
 30
0.0
 11
278.6763006887427
 21
7.5
 31
0.0
  0
LINE
  5
73
330
1F
100
AcDbEntity
  8
1
  6
Continuous
 62
     7
100
AcDbLine
 10
278.6763006887427
 20
17.5
 30
0.0
 11
287.0927359638841
 21
12.64436426434133
 31
0.0
  0
LINE
  5
74
330
1F
100
AcDbEntity
  8
1
  6
Continuous
 62
     7
100
AcDbLine
 10
270.2598654136011
 20
12.64436426434133
 30
0.0
 11
278.6763006887427
 21
17.5
 31
0.0
  0
LINE
  5
75
102
{ACAD_REACTORS
330
432
102
}
330
1F
100
AcDbEntity
  8
1
  6
Continuous
 62
     7
100
AcDbLine
 10
277.6763006887427
 20
14.23205080756884
 30
0.0
 11
277.6763006887427
 21
12.5
 31
0.0
  0
LINE
  5
76
102
{ACAD_REACTORS
330
432
102
}
330
1F
100
AcDbEntity
  8
1
  6
Continuous
 62
     7
100
AcDbLine
 10
278.5319631214452
 20
12.75
 30
0.0
 11
277.6763006887427
 21
14.23205080756884
 31
0.0
  0
LINE
  5
77
102
{ACAD_REACTORS
330
432
102
}
330
1F
100
AcDbEntity
  8
1
  6
Continuous
 62
     7
100
AcDbLine
 10
279.6763006887427
 20
14.23205080756884
 30
0.0
 11
278.8206382560401
 21
12.75
 31
0.0
  0
LINE
  5
78
102
{ACAD_REACTORS
330
432
102
}
330
1F
100
AcDbEntity
  8
1
  6
Continuous
 62
     7
100
AcDbLine
 10
279.6763006887427
 20
12.5
 30
0.0
 11
279.6763006887427
 21
14.23205080756884
 31
0.0
  0
LINE
  5
79
102
{ACAD_REACTORS
330
42F
102
}
330
1F
100
AcDbEntity
  8
1
  6
Continuous
 62
     7
100
AcDbLine
 10
281.0096340220761
 20
10.07749983983263
 30
0.0
 11
281.0096340220761
 21
14.92250016016737
 31
0.0
  0
LINE
  5
7A
330
1F
100
AcDbEntity
  8
1
  6
Continuous
 62
     7
100
AcDbLine
 10
292.0
 20
189.0
 30
0.0
 11
4.99999999999977
 21
189.0
 31
0.0
  0
LINE
  5
7B
330
1F
100
AcDbEntity
  8
1
  6
Continuous
 62
     7
100
AcDbLine
 10
292.0
 20
5.0
 30
0.0
 11
292.0
 21
189.0
 31
0.0
  0
LINE
  5
7C
330
1F
100
AcDbEntity
  8
1
  6
Continuous
 62
     7
100
AcDbLine
 10
4.99999999999977
 20
5.0
 30
0.0
 11
292.0
 21
5.0
 31
0.0
  0
LINE
  5
7D
330
1F
100
AcDbEntity
  8
1
  6
Continuous
 62
     7
100
AcDbLine
 10
297.0
 20
0.0
 30
0.0
 11
297.0
 21
210.0000000000001
 31
0.0
  0
LINE
  5
7E
330
1F
100
AcDbEntity
  8
1
  6
Continuous
 62
     7
100
AcDbLine
 10
297.0
 20
210.0000000000001
 30
0.0
 11
-0.00000000000011
 21
210.0000000000001
 31
0.0
  0
LINE
  5
7F
330
1F
100
AcDbEntity
  8
1
  6
Continuous
 62
     7
100
AcDbLine
 10
-0.00000000000011
 20
210.0000000000001
 30
0.0
 11
-0.00000000000011
 21
0.0
 31
0.0
  0
LINE
  5
80
330
1F
100
AcDbEntity
  8
1
  6
Continuous
 62
     7
100
AcDbLine
 10
-0.00000000000011
 20
0.0
 30
0.0
 11
297.0
 21
0.0
 31
0.0
  0
LINE
  5
81
330
1F
100
AcDbEntity
  8
1
  6
Continuous
 62
     7
100
AcDbLine
 10
148.4999999999997
 20
210.0000000000001
 30
0.0
 11
148.4999999999997
 21
195.0000000000001
 31
0.0
  0
LINE
  5
82
330
1F
100
AcDbEntity
  8
1
  6
Continuous
 62
     7
100
AcDbLine
 10
138.0
 20
20.0
 30
0.0
 11
138.0
 21
5.0
 31
0.0
  0
LINE
  5
83
330
1F
100
AcDbEntity
  8
1
  6
Continuous
 62
     7
100
AcDbLine
 10
265.3526013774854
 20
20.0
 30
0.0
 11
265.3526013774854
 21
5.0
 31
0.0
  0
LINE
  5
84
330
1F
100
AcDbEntity
  8
1
  6
Continuous
 62
     7
100
AcDbLine
 10
248.0
 20
20.0
 30
0.0
 11
248.0
 21
5.0
 31
0.0
  0
LINE
  5
85
330
1F
100
AcDbEntity
  8
1
  6
Continuous
 62
     7
100
AcDbLine
 10
108.0
 20
14.99999999999989
 30
0.0
 11
138.0
 21
14.99999999999989
 31
0.0
  0
LINE
  5
86
330
1F
100
AcDbEntity
  8
1
  6
Continuous
 62
     7
100
AcDbLine
 10
108.0
 20
9.99999999999986
 30
0.0
 11
138.0
 21
9.99999999999986
 31
0.0
  0
LINE
  5
87
330
1F
100
AcDbEntity
  8
0
  6
Continuous
 62
     7
100
AcDbLine
 10
58.67842119568206
 20
131.3297438241715
 30
0.0
 11
58.67842119444117
 21
131.1910528309363
 31
0.0
  0
LINE
  5
88
330
1F
100
AcDbEntity
  8
0
  6
Continuous
 62
     7
100
AcDbLine
 10
66.89122098000803
 20
133.2662992018342
 30
0.0
 11
67.01153933916169
 21
133.1943652218003
 31
0.0
  0
LINE
  5
89
330
1F
100
AcDbEntity
  8
0
  6
Continuous
 62
     7
100
AcDbLine
 10
93.72733411069783
 20
135.6074976702593
 30
0.0
 11
93.72733411069783
 21
134.7797438241708
 31
0.0
  0
LINE
  5
8A
330
1F
100
AcDbEntity
  8
0
  6
Continuous
 62
     7
100
AcDbLine
 10
59.06066359315753
 20
130.8839817298401
 30
0.0
 11
143.3940044829816
 21
130.8839817298435
 31
0.0
  0
LINE
  5
8B
330
1F
100
AcDbEntity
  8
0
  6
Continuous
 62
     7
100
AcDbLine
 10
59.43500649516727
 20
131.2467954723527
 30
0.0
 11
59.42292431949943
 21
131.3465518773787
 31
0.0
  0
LINE
  5
8C
330
1F
100
AcDbEntity
  8
0
  6
Continuous
 62
     7
100
AcDbLine
 10
58.67842119568206
 20
131.3297438241715
 30
0.0
 11
59.42496005696819
 21
131.3297438241715
 31
0.0
  0
LINE
  5
8D
330
1F
100
AcDbEntity
  8
0
  6
Continuous
 62
     7
100
AcDbLine
 10
143.0297081644275
 20
131.3297438241715
 30
0.0
 11
143.7762470257135
 21
131.3297438241715
 31
0.0
  0
LINE
  5
8E
330
1F
100
AcDbEntity
  8
0
  6
Continuous
 62
     7
100
AcDbLine
 10
61.07403812108464
 20
131.4805253791081
 30
0.0
 11
61.11004948228299
 21
131.3827106190348
 31
0.0
  0
LINE
  5
8F
330
1F
100
AcDbEntity
  8
0
  6
Continuous
 62
     7
100
AcDbLine
 10
61.07403812108464
 20
131.4805253791081
 30
0.0
 11
141.380630100311
 21
131.4805253791081
 31
0.0
  0
LINE
  5
90
330
1F
100
AcDbEntity
  8
0
  6
Continuous
 62
     7
100
AcDbLine
 10
143.0196617262283
 20
131.2467954723527
 30
0.0
 11
59.43500649516727
 21
131.2467954723527
 31
0.0
  0
LINE
  5
91
330
1F
100
AcDbEntity
  8
0
  6
Continuous
 62
     7
100
AcDbLine
 10
93.72733411069783
 20
133.9201134968914
 30
0.0
 11
68.14337683349822
 21
133.9201134968912
 31
0.0
  0
LINE
  5
92
330
1F
100
AcDbEntity
  8
0
  6
Continuous
 62
     7
100
AcDbLine
 10
93.72733411066702
 20
134.2797438241716
 30
0.0
 11
93.72733411069783
 21
133.9201134968914
 31
0.0
  0
LINE
  5
93
330
1F
100
AcDbEntity
  8
0
  6
Continuous
 62
     7
100
AcDbLine
 10
94.02733411069778
 20
133.9797438241715
 30
0.0
 11
108.4273341106979
 21
133.9797438241715
 31
0.0
  0
LINE
  5
94
330
1F
100
AcDbEntity
  8
0
  6
Continuous
 62
     7
100
AcDbLine
 10
93.72733411069783
 20
134.7297438241708
 30
0.0
 11
93.72733411069783
 21
134.7797438241708
 31
0.0
  0
LINE
  5
95
330
1F
100
AcDbEntity
  8
0
  6
Continuous
 62
     7
100
AcDbLine
 10
69.08925419839579
 20
134.7297438241708
 30
0.0
 11
93.72733411069783
 21
134.7297438241708
 31
0.0
  0
LINE
  5
96
330
1F
100
AcDbEntity
  8
0
  6
Continuous
 62
     7
100
AcDbLine
 10
108.7273341106978
 20
134.7297438241707
 30
0.0
 11
108.7273341106978
 21
134.7797438241708
 31
0.0
  0
LINE
  5
97
330
1F
100
AcDbEntity
  8
0
  6
Continuous
 62
     7
100
AcDbLine
 10
68.93925419839593
 20
134.7797438241709
 30
0.0
 11
69.08925419839579
 21
134.7297438241708
 31
0.0
  0
LINE
  5
98
330
1F
100
AcDbEntity
  8
0
  6
Continuous
 62
     7
100
AcDbLine
 10
68.93925419839593
 20
134.7797438241709
 30
0.0
 11
93.72733411069783
 21
134.7797438241708
 31
0.0
  0
LINE
  5
99
330
1F
100
AcDbEntity
  8
0
  6
Continuous
 62
     7
100
AcDbLine
 10
93.72733411069783
 20
134.7297438241708
 30
0.0
 11
93.72733411066702
 21
134.2797438241716
 31
0.0
  0
LINE
  5
9A
330
1F
100
AcDbEntity
  8
0
  6
Continuous
 62
     7
100
AcDbLine
 10
62.73602805656014
 20
131.6518954786698
 30
0.0
 11
62.67678843001488
 21
131.7458647407483
 31
0.0
  0
LINE
  5
9B
330
1F
100
AcDbEntity
  8
0
  6
Continuous
 62
     7
100
AcDbLine
 10
64.19997953462791
 20
132.1374054334445
 30
0.0
 11
64.28129439457337
 21
132.0491106741586
 31
0.0
  0
LINE
  5
9C
330
1F
100
AcDbEntity
  8
0
  6
Continuous
 62
     7
100
AcDbLine
 10
66.89122098000803
 20
133.2662992018342
 30
0.0
 11
135.5634472413877
 21
133.2662992018342
 31
0.0
  0
LINE
  5
9D
330
1F
100
AcDbEntity
  8
0
  6
Continuous
 62
     7
100
AcDbLine
 10
65.71577164476764
 20
132.5666248635465
 30
0.0
 11
65.61396425267662
 21
132.647526562984
 31
0.0
  0
LINE
  5
9E
330
1F
100
AcDbEntity
  8
0
  6
Continuous
 62
     7
100
AcDbLine
 10
68.14337683349822
 20
133.9201134968912
 30
0.0
 11
68.00688936728238
 21
133.9816796444238
 31
0.0
  0
LINE
  5
9F
330
1F
100
AcDbEntity
  8
0
  6
Continuous
 62
     7
100
AcDbLine
 10
65.71577164476764
 20
132.5666248635465
 30
0.0
 11
136.7388965766281
 21
132.5666248635465
 31
0.0
  0
LINE
  5
A0
330
1F
100
AcDbEntity
  8
0
  6
Continuous
 62
     7
100
AcDbLine
 10
67.01153933916169
 20
133.1943652218003
 30
0.0
 11
135.443128882234
 21
133.1943652218003
 31
0.0
  0
LINE
  5
A1
330
1F
100
AcDbEntity
  8
0
  6
Continuous
 62
     7
100
AcDbLine
 10
61.11004948228299
 20
131.3827106190348
 30
0.0
 11
141.3446187391127
 21
131.3827106190348
 31
0.0
  0
LINE
  5
A2
330
1F
100
AcDbEntity
  8
0
  6
Continuous
 62
     7
100
AcDbLine
 10
62.73602805656014
 20
131.6518954786698
 30
0.0
 11
139.7186401648355
 21
131.6518954786699
 31
0.0
  0
LINE
  5
A3
330
1F
100
AcDbEntity
  8
0
  6
Continuous
 62
     7
100
AcDbLine
 10
64.28129439457337
 20
132.0491106741586
 30
0.0
 11
138.1733738268223
 21
132.0491106741586
 31
0.0
  0
LINE
  5
A4
330
1F
100
AcDbEntity
  8
0
  6
Continuous
 62
     7
100
AcDbLine
 10
64.19997953462791
 20
132.1374054334445
 30
0.0
 11
138.2546886867677
 21
132.1374054334445
 31
0.0
  0
LINE
  5
A5
330
1F
100
AcDbEntity
  8
0
  6
Continuous
 62
     7
100
AcDbLine
 10
134.3112913878975
 20
133.9201134968912
 30
0.0
 11
134.4477788541134
 21
133.9816796444238
 31
0.0
  0
LINE
  5
A6
330
1F
100
AcDbEntity
  8
0
  6
Continuous
 62
     7
100
AcDbLine
 10
135.5634472413877
 20
133.2662992018342
 30
0.0
 11
135.443128882234
 21
133.1943652218003
 31
0.0
  0
LINE
  5
A7
330
1F
100
AcDbEntity
  8
0
  6
Continuous
 62
     7
100
AcDbLine
 10
136.7388965766281
 20
132.5666248635465
 30
0.0
 11
136.8407039687191
 21
132.647526562984
 31
0.0
  0
LINE
  5
A8
330
1F
100
AcDbEntity
  8
0
  6
Continuous
 62
     7
100
AcDbLine
 10
141.380630100311
 20
131.4805253791081
 30
0.0
 11
141.3446187391127
 21
131.3827106190348
 31
0.0
  0
LINE
  5
A9
330
1F
100
AcDbEntity
  8
0
  6
Continuous
 62
     7
100
AcDbLine
 10
143.0196617262283
 20
131.2467954723527
 30
0.0
 11
143.0317439018965
 21
131.3465518773787
 31
0.0
  0
LINE
  5
AA
330
1F
100
AcDbEntity
  8
0
  6
Continuous
 62
     7
100
AcDbLine
 10
139.7186401648355
 20
131.6518954786699
 30
0.0
 11
139.7778797913808
 21
131.7458647407483
 31
0.0
  0
LINE
  5
AB
330
1F
100
AcDbEntity
  8
0
  6
Continuous
 62
     7
100
AcDbLine
 10
138.2546886867677
 20
132.1374054334445
 30
0.0
 11
138.1733738268223
 21
132.0491106741586
 31
0.0
  0
LINE
  5
AC
330
1F
100
AcDbEntity
  8
0
  6
Continuous
 62
     7
100
AcDbLine
 10
108.7273341106978
 20
134.7797438241708
 30
0.0
 11
133.5154140229997
 21
134.7797438241709
 31
0.0
  0
LINE
  5
AD
330
1F
100
AcDbEntity
  8
0
  6
Continuous
 62
     7
100
AcDbLine
 10
108.7273341106978
 20
133.9201134968914
 30
0.0
 11
134.3112913878975
 21
133.9201134968912
 31
0.0
  0
LINE
  5
AE
330
1F
100
AcDbEntity
  8
0
  6
Continuous
 62
     7
100
AcDbLine
 10
108.7273341106978
 20
134.7297438241707
 30
0.0
 11
133.3654140229999
 21
134.7297438241707
 31
0.0
  0
LINE
  5
AF
330
1F
100
AcDbEntity
  8
0
  6
Continuous
 62
     7
100
AcDbLine
 10
108.7273341106978
 20
134.2797438241716
 30
0.0
 11
108.7273341106978
 21
133.9201134968914
 31
0.0
  0
LINE
  5
B0
330
1F
100
AcDbEntity
  8
0
  6
Continuous
 62
     7
100
AcDbLine
 10
108.7273341106978
 20
134.7297438241707
 30
0.0
 11
108.7273341106978
 21
134.2797438241716
 31
0.0
  0
LINE
  5
B1
330
1F
100
AcDbEntity
  8
0
  6
Continuous
 62
     7
100
AcDbLine
 10
143.7762470257135
 20
131.1910528442112
 30
0.0
 11
143.7762470257135
 21
131.3297438241715
 31
0.0
  0
LINE
  5
B2
330
1F
100
AcDbEntity
  8
0
  6
Continuous
 62
     7
100
AcDbLine
 10
108.7273341106978
 20
135.6074976702594
 30
0.0
 11
108.7273341106978
 21
134.7797438241708
 31
0.0
  0
LINE
  5
B3
330
1F
100
AcDbEntity
  8
0
  6
Continuous
 62
     7
100
AcDbLine
 10
114.5523614470923
 20
140.7297438241711
 30
0.0
 11
108.7273341106978
 21
140.729743824171
 31
0.0
  0
LINE
  5
B4
330
1F
100
AcDbEntity
  8
0
  6
Continuous
 62
     7
100
AcDbLine
 10
108.7273341106978
 20
140.729743824171
 30
0.0
 11
108.7273341106975
 21
140.3928627847955
 31
0.0
  0
LINE
  5
B5
330
1F
100
AcDbEntity
  8
0
  6
Continuous
 62
     7
100
AcDbLine
 10
108.7273341106978
 20
135.6074976702594
 30
0.0
 11
132.6239072145291
 21
135.6074976702593
 31
0.0
  0
LINE
  5
B6
330
1F
100
AcDbEntity
  8
0
  6
Continuous
 62
     7
100
AcDbLine
 10
115.8023614470923
 20
140.7297438241708
 30
0.0
 11
117.0734952324207
 21
140.7297438241708
 31
0.0
  0
LINE
  5
B7
330
1F
100
AcDbEntity
  8
0
  6
Continuous
 62
     7
100
AcDbLine
 10
115.8023614470924
 20
143.2297438241708
 30
0.0
 11
119.7273341106974
 21
143.2297438241711
 31
0.0
  0
LINE
  5
B8
330
1F
100
AcDbEntity
  8
0
  6
Continuous
 62
     7
100
AcDbLine
 10
115.8023614470923
 20
140.7297438241708
 30
0.0
 11
114.5523614470923
 21
140.7297438241711
 31
0.0
  0
LINE
  5
B9
330
1F
100
AcDbEntity
  8
0
  6
Continuous
 62
     7
100
AcDbLine
 10
115.8023614470924
 20
143.2297438241708
 30
0.0
 11
114.5523614470924
 21
143.2297438241707
 31
0.0
  0
LINE
  5
BA
330
1F
100
AcDbEntity
  8
0
  6
Continuous
 62
     7
100
AcDbLine
 10
132.784500168936
 20
135.6449583296009
 30
0.0
 11
132.6239072145291
 21
135.6074976702593
 31
0.0
  0
LINE
  5
BB
330
1F
100
AcDbEntity
  8
0
  6
Continuous
 62
     7
100
AcDbLine
 10
131.9797331040787
 20
137.5084974276239
 30
0.0
 11
131.8074768588771
 21
137.4980445812972
 31
0.0
  0
LINE
  5
BC
330
1F
100
AcDbEntity
  8
0
  6
Continuous
 62
     7
100
AcDbLine
 10
131.7484441998923
 20
138.4740403010882
 30
0.0
 11
131.9215437687939
 21
138.470550351418
 31
0.0
  0
LINE
  5
BD
330
1F
100
AcDbEntity
  8
0
  6
Continuous
 62
     7
100
AcDbLine
 10
120.2273341106975
 20
143.2297438241711
 30
0.0
 11
121.222775681801
 21
143.592054926004
 31
0.0
  0
LINE
  5
BE
330
1F
100
AcDbEntity
  8
0
  6
Continuous
 62
     7
100
AcDbLine
 10
122.7998979770333
 20
144.1660804972661
 30
0.0
 11
122.5668986775532
 21
144.0812756876506
 31
0.0
  0
LINE
  5
BF
330
1F
100
AcDbEntity
  8
0
  6
Continuous
 62
     7
100
AcDbLine
 10
122.7998979770333
 20
144.1660804972661
 30
0.0
 11
124.0595656290533
 21
144.6245620276695
 31
0.0
  0
LINE
  5
C0
330
1F
100
AcDbEntity
  8
0
  6
Continuous
 62
     7
100
AcDbLine
 10
119.7273341106974
 20
143.2297438241711
 30
0.0
 11
120.2273341106975
 21
143.2297438241711
 31
0.0
  0
LINE
  5
C1
330
1F
100
AcDbEntity
  8
0
  6
Continuous
 62
     7
100
AcDbLine
 10
134.8552618572385
 20
142.913658068683
 30
0.0
 11
120.13235697044
 21
142.9136580686828
 31
0.0
  0
LINE
  5
C2
330
1F
100
AcDbEntity
  8
0
  6
Continuous
 62
     7
100
AcDbLine
 10
119.1610691055936
 20
142.1440941484662
 30
0.0
 11
133.8138676436576
 21
142.1440941484662
 31
0.0
  0
LINE
  5
C3
330
1F
100
AcDbEntity
  8
0
  6
Continuous
 62
     7
100
AcDbLine
 10
120.3034158055262
 20
142.8467450080471
 30
0.0
 11
134.9839783167496
 21
142.8467450080471
 31
0.0
  0
LINE
  5
C4
330
1F
100
AcDbEntity
  8
0
  6
Continuous
 62
     7
100
AcDbLine
 10
132.3344665733513
 20
140.3928627847955
 30
0.0
 11
132.4991943940605
 21
140.3619610853579
 31
0.0
  0
LINE
  5
C5
330
1F
100
AcDbEntity
  8
0
  6
Continuous
 62
     7
100
AcDbLine
 10
133.9574611633624
 20
142.0881748581191
 30
0.0
 11
133.8138676436576
 21
142.1440941484662
 31
0.0
  0
LINE
  5
C6
330
1F
100
AcDbEntity
  8
0
  6
Continuous
 62
     7
100
AcDbLine
 10
132.968115346886
 20
141.2983418516945
 30
0.0
 11
133.1237910422589
 21
141.2545047370156
 31
0.0
  0
LINE
  5
C7
330
1F
100
AcDbEntity
  8
0
  6
Continuous
 62
     7
100
AcDbLine
 10
134.8552618572385
 20
142.913658068683
 30
0.0
 11
134.9839783167496
 21
142.8467450080471
 31
0.0
  0
LINE
  5
C8
330
1F
100
AcDbEntity
  8
0
  6
Continuous
 62
     7
100
AcDbLine
 10
122.5668986775532
 20
144.0812756876506
 30
0.0
 11
137.5322691050261
 21
144.0812756876506
 31
0.0
  0
LINE
  5
C9
330
1F
100
AcDbEntity
  8
0
  6
Continuous
 62
     7
100
AcDbLine
 10
121.222775681801
 20
143.592054926004
 30
0.0
 11
136.0720284338302
 21
143.592054926004
 31
0.0
  0
LINE
  5
CA
330
1F
100
AcDbEntity
  8
0
  6
Continuous
 62
     7
100
AcDbLine
 10
136.1833625136752
 20
143.5154504816921
 30
0.0
 11
136.0720284338302
 21
143.592054926004
 31
0.0
  0
LINE
  5
CB
330
1F
100
AcDbEntity
  8
0
  6
Continuous
 62
     7
100
AcDbLine
 10
137.4404843960699
 20
144.1660804972661
 30
0.0
 11
137.5322691050261
 21
144.0812756876506
 31
0.0
  0
LINE
  5
CC
330
1F
100
AcDbEntity
  8
0
  6
Continuous
 62
     7
100
AcDbLine
 10
139.0044431583596
 20
144.5332074819052
 30
0.0
 11
138.9339943052488
 21
144.6245620276695
 31
0.0
  0
LINE
  5
CD
330
1F
100
AcDbEntity
  8
0
  6
Continuous
 62
     7
100
AcDbLine
 10
122.7998979770333
 20
144.1660804972661
 30
0.0
 11
137.4404843960699
 21
144.1660804972661
 31
0.0
  0
LINE
  5
CE
330
1F
100
AcDbEntity
  8
0
  6
Continuous
 62
     7
100
AcDbLine
 10
118.3153168088221
 20
141.2983418516945
 30
0.0
 11
132.968115346886
 21
141.2983418516945
 31
0.0
  0
LINE
  5
CF
330
1F
100
AcDbEntity
  8
0
  6
Continuous
 62
     7
100
AcDbLine
 10
118.4709925041952
 20
141.2545047370156
 30
0.0
 11
133.1237910422589
 21
141.2545047370156
 31
0.0
  0
LINE
  5
D0
330
1F
100
AcDbEntity
  8
0
  6
Continuous
 62
     7
100
AcDbLine
 10
121.222775681801
 20
143.592054926004
 30
0.0
 11
122.5668986775532
 21
144.0812756876506
 31
0.0
  0
LINE
  5
D1
330
1F
100
AcDbEntity
  8
0
  6
Continuous
 62
     7
100
AcDbLine
 10
96.07776548399613
 20
137.267829181518
 30
0.0
 11
101.1280849430041
 21
134.3811074146475
 31
0.0
  0
LINE
  5
D2
330
1F
100
AcDbEntity
  8
0
  6
Continuous
 62
     7
100
AcDbLine
 10
101.2273341106994
 20
134.5547438241674
 30
0.0
 11
96.32873437465645
 21
137.3547438241675
 31
0.0
  0
LINE
  5
D3
330
1F
100
AcDbEntity
  8
0
  6
Continuous
 62
     7
100
AcDbLine
 10
106.1258244769713
 20
137.3547438241674
 30
0.0
 11
101.2273341106994
 21
134.5547438241674
 31
0.0
  0
LINE
  5
D4
330
1F
100
AcDbEntity
  8
0
  6
Continuous
 62
     7
100
AcDbLine
 10
101.1272786013745
 20
135.418213551094
 30
0.0
 11
99.82733411069762
 21
136.1612513108672
 31
0.0
  0
LINE
  5
D5
330
1F
100
AcDbEntity
  8
0
  6
Continuous
 62
     7
100
AcDbLine
 10
99.62744512930112
 20
135.814777076448
 30
0.0
 11
100.9273896200011
 21
135.0717393166616
 31
0.0
  0
LINE
  5
D6
330
1F
100
AcDbEntity
  8
0
  6
Continuous
 62
     7
100
AcDbLine
 10
102.2273341106974
 20
139.1215408384014
 30
0.0
 11
102.2273341106978
 21
135.5879468099321
 31
0.0
  0
LINE
  5
D7
330
1F
100
AcDbEntity
  8
0
  6
Continuous
 62
     7
100
AcDbLine
 10
101.8273341106976
 20
138.3751306768873
 30
0.0
 11
101.8273341106973
 21
135.5879468099277
 31
0.0
  0
LINE
  5
D8
330
1F
100
AcDbEntity
  8
0
  6
Continuous
 62
     7
100
AcDbLine
 10
102.9272786013875
 20
135.8719934337381
 30
0.0
 11
103.7272786013929
 21
136.3292433791964
 31
0.0
  0
LINE
  5
D9
330
1F
100
AcDbEntity
  8
0
  6
Continuous
 62
     7
100
AcDbLine
 10
103.5273896191525
 20
136.6757176131287
 30
0.0
 11
103.0273341106976
 21
136.3899191841038
 31
0.0
  0
LINE
  5
DA
330
1F
100
AcDbEntity
  8
0
  6
Continuous
 62
     7
100
AcDbLine
 10
100.2273341106974
 20
139.1215408384014
 30
0.0
 11
100.2273341106971
 21
136.5024804964065
 31
0.0
  0
LINE
  5
DB
330
1F
100
AcDbEntity
  8
0
  6
Continuous
 62
     7
100
AcDbLine
 10
100.6273341106956
 20
138.3751306768862
 30
0.0
 11
100.6273341106979
 21
136.5024804964065
 31
0.0
  0
LINE
  5
DC
330
1F
100
AcDbEntity
  8
0
  6
Continuous
 62
     7
100
AcDbLine
 10
103.0273341106976
 20
137.1547438241708
 30
0.0
 11
103.0273341106976
 21
136.3899191841038
 31
0.0
  0
LINE
  5
DD
330
1F
100
AcDbEntity
  8
0
  6
Continuous
 62
     7
100
AcDbLine
 10
102.6273341106976
 20
138.6642570973895
 30
0.0
 11
102.6273341106975
 21
136.0452305509519
 31
0.0
  0
LINE
  5
DE
330
1F
100
AcDbEntity
  8
0
  6
Continuous
 62
     7
100
AcDbLine
 10
99.82733411069762
 20
138.6685456134726
 30
0.0
 11
99.82733411069762
 21
136.1612513108672
 31
0.0
  0
LINE
  5
DF
330
1F
100
AcDbEntity
  8
0
  6
Continuous
 62
     7
100
AcDbLine
 10
98.62733411069763
 20
138.2070071519342
 30
0.0
 11
98.62733411069723
 21
136.5024804964065
 31
0.0
  0
LINE
  5
E0
330
1F
100
AcDbEntity
  8
0
  6
Continuous
 62
     7
100
AcDbLine
 10
99.42733411069753
 20
138.668545613474
 30
0.0
 11
99.42733411069753
 21
136.1612513108672
 31
0.0
  0
LINE
  5
E1
330
1F
100
AcDbEntity
  8
0
  6
Continuous
 62
     7
100
AcDbLine
 10
99.02733411069755
 20
138.2070071519342
 30
0.0
 11
99.02733411069778
 21
136.5024804964063
 31
0.0
  0
LINE
  5
E2
330
1F
100
AcDbEntity
  8
0
  6
Continuous
 62
     7
100
AcDbLine
 10
93.7273341106976
 20
136.5362905549732
 30
0.0
 11
93.72733411069783
 21
135.6074976702593
 31
0.0
  0
LINE
  5
E3
330
1F
100
AcDbEntity
  8
0
  6
Continuous
 62
     7
100
AcDbLine
 10
69.83076100686651
 20
135.6074976702593
 30
0.0
 11
93.72733411069783
 21
135.6074976702593
 31
0.0
  0
LINE
  5
E4
330
1F
100
AcDbEntity
  8
0
  6
Continuous
 62
     7
100
AcDbLine
 10
108.7273341106975
 20
136.5362905549732
 30
0.0
 11
108.7273341106978
 21
135.6074976702594
 31
0.0
  0
LINE
  5
E5
330
1F
100
AcDbEntity
  8
0
  6
Continuous
 62
     7
100
AcDbLine
 10
69.67016805245964
 20
135.6449583296009
 30
0.0
 11
69.83076100686651
 21
135.6074976702593
 31
0.0
  0
LINE
  5
E6
330
1F
100
AcDbEntity
  8
0
  6
Continuous
 62
     7
100
AcDbLine
 10
93.7273341106976
 20
136.5604827445331
 30
0.0
 11
93.7273341106976
 21
136.5362905549732
 31
0.0
  0
LINE
  5
E7
330
1F
100
AcDbEntity
  8
0
  6
Continuous
 62
     7
100
AcDbLine
 10
70.35346467233472
 20
136.536290554973
 30
0.0
 11
70.1854045227069
 21
136.5604827445331
 31
0.0
  0
LINE
  5
E8
330
1F
100
AcDbEntity
  8
0
  6
Continuous
 62
     7
100
AcDbLine
 10
108.7273341106975
 20
136.5362905549732
 30
0.0
 11
108.7273341106975
 21
136.5604827445331
 31
0.0
  0
LINE
  5
E9
330
1F
100
AcDbEntity
  8
0
  6
Continuous
 62
     7
100
AcDbLine
 10
70.47493511731693
 20
137.5084974276239
 30
0.0
 11
70.64719136251881
 21
137.4980445812972
 31
0.0
  0
LINE
  5
EA
330
1F
100
AcDbEntity
  8
0
  6
Continuous
 62
     7
100
AcDbLine
 10
108.7273341106975
 20
137.4980445812972
 30
0.0
 11
131.8074768588771
 21
137.4980445812972
 31
0.0
  0
LINE
  5
EB
330
1F
100
AcDbEntity
  8
0
  6
Continuous
 62
     7
100
AcDbLine
 10
103.0273341106976
 20
137.1547438241708
 30
0.0
 11
103.6273341106976
 21
137.1547438241708
 31
0.0
  0
LINE
  5
EC
330
1F
100
AcDbEntity
  8
0
  6
Continuous
 62
     7
100
AcDbLine
 10
108.7273341106978
 20
138.4740403010882
 30
0.0
 11
131.7484441998923
 21
138.4740403010882
 31
0.0
  0
LINE
  5
ED
330
1F
100
AcDbEntity
  8
0
  6
Continuous
 62
     7
100
AcDbLine
 10
93.7273341106976
 20
139.4452810678393
 30
0.0
 11
93.7273341106976
 21
139.4279162500727
 31
0.0
  0
LINE
  5
EE
330
1F
100
AcDbEntity
  8
0
  6
Continuous
 62
     7
100
AcDbLine
 10
103.0273341106956
 20
138.3195703066735
 30
0.0
 11
103.0273341106956
 21
137.554743824171
 31
0.0
  0
LINE
  5
EF
330
1F
100
AcDbEntity
  8
0
  6
Continuous
 62
     7
100
AcDbLine
 10
103.0273341106956
 20
137.554743824171
 30
0.0
 11
103.6273341106976
 21
137.554743824171
 31
0.0
  0
LINE
  5
F0
330
1F
100
AcDbEntity
  8
0
  6
Continuous
 62
     7
100
AcDbLine
 10
93.7273341106976
 20
138.4740403010882
 30
0.0
 11
93.7273341106976
 21
137.4980445812972
 31
0.0
  0
LINE
  5
F1
330
1F
100
AcDbEntity
  8
0
  6
Continuous
 62
     7
100
AcDbLine
 10
108.7273341106975
 20
139.4279162500727
 30
0.0
 11
108.7273341106978
 21
138.4740403010882
 31
0.0
  0
LINE
  5
F2
330
1F
100
AcDbEntity
  8
0
  6
Continuous
 62
     7
100
AcDbLine
 10
108.7273341106978
 20
138.4740403010882
 30
0.0
 11
108.7273341106975
 21
137.4980445812972
 31
0.0
  0
LINE
  5
F3
330
1F
100
AcDbEntity
  8
0
  6
Continuous
 62
     7
100
AcDbLine
 10
103.0273341106956
 20
138.3195703066735
 30
0.0
 11
103.5273896208508
 21
138.0337362386766
 31
0.0
  0
LINE
  5
F4
330
1F
100
AcDbEntity
  8
0
  6
Continuous
 62
     7
100
AcDbLine
 10
103.7272786013878
 20
138.3802104735916
 30
0.0
 11
102.9272786013966
 21
138.8374942145985
 31
0.0
  0
LINE
  5
F5
330
1F
100
AcDbEntity
  8
0
  6
Continuous
 62
     7
100
AcDbLine
 10
101.3139366510761
 20
137.4859001923463
 30
0.0
 11
101.8273341106976
 21
138.3751306768873
 31
0.0
  0
LINE
  5
F6
330
1F
100
AcDbEntity
  8
0
  6
Continuous
 62
     7
100
AcDbLine
 10
70.35346467233472
 20
136.536290554973
 30
0.0
 11
93.7273341106976
 21
136.5362905549732
 31
0.0
  0
LINE
  5
F7
330
1F
100
AcDbEntity
  8
0
  6
Continuous
 62
     7
100
AcDbLine
 10
108.7273341106975
 20
136.5362905549732
 30
0.0
 11
132.1012035490609
 21
136.536290554973
 31
0.0
  0
LINE
  5
F8
330
1F
100
AcDbEntity
  8
0
  6
Continuous
 62
     7
100
AcDbLine
 10
70.1854045227069
 20
136.5604827445331
 30
0.0
 11
93.7273341106976
 21
136.5604827445331
 31
0.0
  0
LINE
  5
F9
330
1F
100
AcDbEntity
  8
0
  6
Continuous
 62
     7
100
AcDbLine
 10
108.7273341106975
 20
136.5604827445331
 30
0.0
 11
132.2692636986888
 21
136.5604827445331
 31
0.0
  0
LINE
  5
FA
330
1F
100
AcDbEntity
  8
0
  6
Continuous
 62
     7
100
AcDbLine
 10
108.7273341106975
 20
137.4980445812972
 30
0.0
 11
108.7273341106975
 21
136.5604827445331
 31
0.0
  0
LINE
  5
FB
330
1F
100
AcDbEntity
  8
0
  6
Continuous
 62
     7
100
AcDbLine
 10
70.70622402150343
 20
138.4740403010882
 30
0.0
 11
93.7273341106976
 21
138.4740403010882
 31
0.0
  0
LINE
  5
FC
330
1F
100
AcDbEntity
  8
0
  6
Continuous
 62
     7
100
AcDbLine
 10
93.7273341106976
 20
139.4279162500727
 30
0.0
 11
93.7273341106976
 21
138.4740403010882
 31
0.0
  0
LINE
  5
FD
330
1F
100
AcDbEntity
  8
0
  6
Continuous
 62
     7
100
AcDbLine
 10
70.70622402150343
 20
138.4740403010882
 30
0.0
 11
70.53312445260178
 21
138.470550351418
 31
0.0
  0
LINE
  5
FE
330
1F
100
AcDbEntity
  8
0
  6
Continuous
 62
     7
100
AcDbLine
 10
70.35883993933953
 20
139.4279162500727
 30
0.0
 11
93.7273341106976
 21
139.4279162500727
 31
0.0
  0
LINE
  5
FF
330
1F
100
AcDbEntity
  8
0
  6
Continuous
 62
     7
100
AcDbLine
 10
93.7273341106976
 20
137.4980445812972
 30
0.0
 11
93.7273341106976
 21
136.5604827445331
 31
0.0
  0
LINE
  5
100
330
1F
100
AcDbEntity
  8
0
  6
Continuous
 62
     7
100
AcDbLine
 10
70.64719136251881
 20
137.4980445812972
 30
0.0
 11
93.7273341106976
 21
137.4980445812972
 31
0.0
  0
LINE
  5
101
330
1F
100
AcDbEntity
  8
0
  6
Continuous
 62
     7
100
AcDbLine
 10
93.7273341106976
 20
140.3928627847955
 30
0.0
 11
93.7273341106976
 21
139.4452810678393
 31
0.0
  0
LINE
  5
102
330
1F
100
AcDbEntity
  8
0
  6
Continuous
 62
     7
100
AcDbLine
 10
70.12020164804449
 20
140.3928627847956
 30
0.0
 11
93.7273341106976
 21
140.3928627847955
 31
0.0
  0
LINE
  5
103
330
1F
100
AcDbEntity
  8
0
  6
Continuous
 62
     7
100
AcDbLine
 10
108.7273341106975
 20
140.3928627847955
 30
0.0
 11
108.7273341106975
 21
139.4452810678393
 31
0.0
  0
LINE
  5
104
330
1F
100
AcDbEntity
  8
0
  6
Continuous
 62
     7
100
AcDbLine
 10
70.52941364573013
 20
139.4452810678393
 30
0.0
 11
93.7273341106976
 21
139.4452810678393
 31
0.0
  0
LINE
  5
105
330
1F
100
AcDbEntity
  8
0
  6
Continuous
 62
     7
100
AcDbLine
 10
108.7273341106975
 20
139.4452810678393
 30
0.0
 11
131.9252545756658
 21
139.4452810678393
 31
0.0
  0
LINE
  5
106
330
1F
100
AcDbEntity
  8
0
  6
Continuous
 62
     7
100
AcDbLine
 10
132.3344665733513
 20
140.3928627847955
 30
0.0
 11
108.7273341106975
 21
140.3928627847955
 31
0.0
  0
LINE
  5
107
330
1F
100
AcDbEntity
  8
0
  6
Continuous
 62
     7
100
AcDbLine
 10
100.6273341106956
 20
138.3751306768862
 30
0.0
 11
101.1407315703193
 21
137.4859001923463
 31
0.0
  0
LINE
  5
108
330
1F
100
AcDbEntity
  8
0
  6
Continuous
 62
     7
100
AcDbLine
 10
101.8541290297592
 20
139.2215408380894
 30
0.0
 11
101.2273341106956
 21
138.1359001923451
 31
0.0
  0
LINE
  5
109
330
1F
100
AcDbEntity
  8
0
  6
Continuous
 62
     7
100
AcDbLine
 10
101.2273341106956
 20
138.1359001923451
 30
0.0
 11
100.6005391914524
 21
139.2215408384002
 31
0.0
  0
LINE
  5
10A
330
1F
100
AcDbEntity
  8
0
  6
Continuous
 62
     7
100
AcDbLine
 10
101.2273341106974
 20
140.1547438241708
 30
0.0
 11
106.1258244769713
 21
137.3547438241674
 31
0.0
  0
LINE
  5
10B
330
1F
100
AcDbEntity
  8
0
  6
Continuous
 62
     7
100
AcDbLine
 10
96.32873437465645
 20
137.3547438241675
 30
0.0
 11
101.2273341106974
 21
140.1547438241708
 31
0.0
  0
LINE
  5
10C
330
1F
100
AcDbEntity
  8
0
  6
Continuous
 62
     7
100
AcDbLine
 10
101.1280849430056
 20
140.3283802336906
 30
0.0
 11
96.07776548399818
 21
137.4416584668202
 31
0.0
  0
LINE
  5
10D
330
1F
100
AcDbEntity
  8
0
  6
Continuous
 62
     7
100
AcDbLine
 10
106.3769595296664
 20
137.4415615515782
 30
0.0
 11
101.3265849486364
 21
140.3283792789849
 31
0.0
  0
LINE
  5
10E
330
1F
100
AcDbEntity
  8
0
  6
Continuous
 62
     7
100
AcDbLine
 10
101.3265849486382
 20
134.3811083693535
 30
0.0
 11
106.3769595296682
 21
137.2679260967602
 31
0.0
  0
LINE
  5
10F
330
1F
100
AcDbEntity
  8
0
  6
Continuous
 62
     7
100
AcDbLine
 10
76.73237927178855
 20
145.2297438241716
 30
0.0
 11
60.25253288357328
 21
145.2297438241723
 31
0.0
  0
LINE
  5
110
330
1F
100
AcDbEntity
  8
0
  6
Continuous
 62
     7
100
AcDbLine
 10
76.73237927178855
 20
145.2297438241716
 30
0.0
 11
76.91954710145001
 21
145.1616203053624
 31
0.0
  0
LINE
  5
111
330
1F
100
AcDbEntity
  8
0
  6
Continuous
 62
     7
100
AcDbLine
 10
59.62733411069792
 20
145.2297438241715
 30
0.0
 11
60.25253288357328
 21
145.2297438241723
 31
0.0
  0
LINE
  5
112
330
1F
100
AcDbEntity
  8
0
  6
Continuous
 62
     7
100
AcDbLine
 10
76.91954710145001
 20
145.1616203053624
 30
0.0
 11
60.27663837176397
 21
145.1616203053624
 31
0.0
  0
LINE
  5
113
330
1F
100
AcDbEntity
  8
0
  6
Continuous
 62
     7
100
AcDbLine
 10
77.74151206190834
 20
144.8624495261457
 30
0.0
 11
77.47740758153054
 21
144.9585756957396
 31
0.0
  0
LINE
  5
114
330
1F
100
AcDbEntity
  8
0
  6
Continuous
 62
     7
100
AcDbLine
 10
61.88343774109467
 20
144.8624495261457
 30
0.0
 11
77.74151206190834
 21
144.8624495261457
 31
0.0
  0
LINE
  5
115
330
1F
100
AcDbEntity
  8
0
  6
Continuous
 62
     7
100
AcDbLine
 10
76.91954710145001
 20
145.1616203053624
 30
0.0
 11
77.47740758153054
 21
144.9585756957396
 31
0.0
  0
LINE
  5
116
330
1F
100
AcDbEntity
  8
0
  6
Continuous
 62
     7
100
AcDbLine
 10
77.47740758153054
 20
144.9585756957396
 30
0.0
 11
61.93117953156877
 21
144.9585756957396
 31
0.0
  0
LINE
  5
117
330
1F
100
AcDbEntity
  8
0
  6
Continuous
 62
     7
100
AcDbLine
 10
61.93117953156877
 20
144.9585756957396
 30
0.0
 11
61.88343774109467
 21
144.8624495261457
 31
0.0
  0
LINE
  5
118
330
1F
100
AcDbEntity
  8
0
  6
Continuous
 62
     7
100
AcDbLine
 10
77.74151206190834
 20
144.8624495261457
 30
0.0
 11
78.39510259234225
 21
144.6245620276695
 31
0.0
  0
LINE
  5
119
330
1F
100
AcDbEntity
  8
0
  6
Continuous
 62
     7
100
AcDbLine
 10
63.52067391614696
 20
144.6245620276695
 30
0.0
 11
78.39510259234225
 21
144.6245620276695
 31
0.0
  0
LINE
  5
11A
330
1F
100
AcDbEntity
  8
0
  6
Continuous
 62
     7
100
AcDbLine
 10
63.45022506303621
 20
144.5332074819052
 30
0.0
 11
63.52067391614696
 21
144.6245620276695
 31
0.0
  0
LINE
  5
11B
330
1F
100
AcDbEntity
  8
0
  6
Continuous
 62
     7
100
AcDbLine
 10
78.39510259234225
 20
144.6245620276695
 30
0.0
 11
79.654770244362
 21
144.1660804972661
 31
0.0
  0
LINE
  5
11C
330
1F
100
AcDbEntity
  8
0
  6
Continuous
 62
     7
100
AcDbLine
 10
64.92239911636966
 20
144.0812756876506
 30
0.0
 11
79.88776954384213
 21
144.0812756876506
 31
0.0
  0
LINE
  5
11D
330
1F
100
AcDbEntity
  8
0
  6
Continuous
 62
     7
100
AcDbLine
 10
65.01418382532592
 20
144.1660804972661
 30
0.0
 11
64.92239911636966
 21
144.0812756876506
 31
0.0
  0
LINE
  5
11E
330
1F
100
AcDbEntity
  8
0
  6
Continuous
 62
     7
100
AcDbLine
 10
67.47068990464618
 20
142.8467450080471
 30
0.0
 11
82.15125241585315
 21
142.8467450080335
 31
0.0
  0
LINE
  5
11F
330
1F
100
AcDbEntity
  8
0
  6
Continuous
 62
     7
100
AcDbLine
 10
66.38263978756572
 20
143.592054926004
 30
0.0
 11
81.23189253959436
 21
143.592054926004
 31
0.0
  0
LINE
  5
120
330
1F
100
AcDbEntity
  8
0
  6
Continuous
 62
     7
100
AcDbLine
 10
67.59940636415723
 20
142.913658068683
 30
0.0
 11
82.3223112509562
 21
142.9136580686824
 31
0.0
  0
LINE
  5
121
330
1F
100
AcDbEntity
  8
0
  6
Continuous
 62
     7
100
AcDbLine
 10
66.27130570772044
 20
143.515450481692
 30
0.0
 11
66.38263978756572
 21
143.592054926004
 31
0.0
  0
LINE
  5
122
330
1F
100
AcDbEntity
  8
0
  6
Continuous
 62
     7
100
AcDbLine
 10
67.59940636415723
 20
142.913658068683
 30
0.0
 11
67.47068990464618
 21
142.8467450080471
 31
0.0
  0
LINE
  5
123
330
1F
100
AcDbEntity
  8
0
  6
Continuous
 62
     7
100
AcDbLine
 10
68.49720705803338
 20
142.0881748581191
 30
0.0
 11
68.6408005777381
 21
142.1440941484662
 31
0.0
  0
LINE
  5
124
330
1F
100
AcDbEntity
  8
0
  6
Continuous
 62
     7
100
AcDbLine
 10
65.01418382532592
 20
144.1660804972661
 30
0.0
 11
79.654770244362
 21
144.1660804972661
 31
0.0
  0
LINE
  5
125
330
1F
100
AcDbEntity
  8
0
  6
Continuous
 62
     7
100
AcDbLine
 10
81.23189253959436
 20
143.592054926004
 30
0.0
 11
82.22733411069771
 21
143.2297438241711
 31
0.0
  0
LINE
  5
126
330
1F
100
AcDbEntity
  8
0
  6
Continuous
 62
     7
100
AcDbLine
 10
82.22733411069771
 20
143.2297438241711
 30
0.0
 11
82.72733411069771
 21
143.2297438241819
 31
0.0
  0
LINE
  5
127
330
1F
100
AcDbEntity
  8
0
  6
Continuous
 62
     7
100
AcDbLine
 10
86.6523067743027
 20
143.2297438241707
 30
0.0
 11
82.72733411069771
 21
143.2297438241819
 31
0.0
  0
LINE
  5
128
330
1F
100
AcDbEntity
  8
0
  6
Continuous
 62
     7
100
AcDbLine
 10
114.5523614470924
 20
143.2297438241707
 30
0.0
 11
87.9023067743027
 21
143.2297438241707
 31
0.0
  0
LINE
  5
129
330
1F
100
AcDbEntity
  8
0
  6
Continuous
 62
     7
100
AcDbLine
 10
86.6523067743027
 20
143.2297438241707
 30
0.0
 11
87.9023067743027
 21
143.2297438241707
 31
0.0
  0
LINE
  5
12A
330
1F
100
AcDbEntity
  8
0
  6
Continuous
 62
     7
100
AcDbLine
 10
79.88776954384213
 20
144.0812756876506
 30
0.0
 11
79.654770244362
 21
144.1660804972661
 31
0.0
  0
LINE
  5
12B
330
1F
100
AcDbEntity
  8
0
  6
Continuous
 62
     7
100
AcDbLine
 10
69.33087717913668
 20
141.2545047370156
 30
0.0
 11
83.98367571720013
 21
141.2545047370156
 31
0.0
  0
LINE
  5
12C
330
1F
100
AcDbEntity
  8
0
  6
Continuous
 62
     7
100
AcDbLine
 10
69.48655287450981
 20
141.2983418516945
 30
0.0
 11
69.33087717913668
 21
141.2545047370156
 31
0.0
  0
LINE
  5
12D
330
1F
100
AcDbEntity
  8
0
  6
Continuous
 62
     7
100
AcDbLine
 10
70.12020164804449
 20
140.3928627847956
 30
0.0
 11
69.95547382733525
 21
140.3619610853579
 31
0.0
  0
LINE
  5
12E
330
1F
100
AcDbEntity
  8
0
  6
Continuous
 62
     7
100
AcDbLine
 10
70.35883993933953
 20
139.4279162500727
 30
0.0
 11
70.52941364573013
 21
139.4452810678393
 31
0.0
  0
LINE
  5
12F
330
1F
100
AcDbEntity
  8
0
  6
Continuous
 62
     7
100
AcDbLine
 10
84.13935141257332
 20
141.2983418516945
 30
0.0
 11
69.48655287450981
 21
141.2983418516945
 31
0.0
  0
LINE
  5
130
330
1F
100
AcDbEntity
  8
0
  6
Continuous
 62
     7
100
AcDbLine
 10
68.6408005777381
 20
142.1440941484662
 30
0.0
 11
83.2935991158015
 21
142.1440941484662
 31
0.0
  0
LINE
  5
131
330
1F
100
AcDbEntity
  8
0
  6
Continuous
 62
     7
100
AcDbLine
 10
108.7273341106978
 20
140.729743824171
 30
0.0
 11
93.72733411069783
 21
140.7297438241708
 31
0.0
  0
LINE
  5
132
330
1F
100
AcDbEntity
  8
0
  6
Continuous
 62
     7
100
AcDbLine
 10
84.13935141257332
 20
141.2983418516945
 30
0.0
 11
83.98367571720013
 21
141.2545047370156
 31
0.0
  0
LINE
  5
133
330
1F
100
AcDbEntity
  8
0
  6
Continuous
 62
     7
100
AcDbLine
 10
86.65230677430304
 20
140.7297438241707
 30
0.0
 11
85.38117298897464
 21
140.729743824171
 31
0.0
  0
LINE
  5
134
330
1F
100
AcDbEntity
  8
0
  6
Continuous
 62
     7
100
AcDbLine
 10
93.72733411069783
 20
140.7297438241708
 30
0.0
 11
93.7273341106976
 21
140.3928627847955
 31
0.0
  0
LINE
  5
135
330
1F
100
AcDbEntity
  8
0
  6
Continuous
 62
     7
100
AcDbLine
 10
86.65230677430304
 20
140.7297438241707
 30
0.0
 11
87.90230677430304
 21
140.7297438241711
 31
0.0
  0
LINE
  5
136
330
1F
100
AcDbEntity
  8
0
  6
Continuous
 62
     7
100
AcDbLine
 10
93.72733411069783
 20
140.7297438241708
 30
0.0
 11
87.90230677430304
 21
140.7297438241711
 31
0.0
  0
LINE
  5
137
330
1F
100
AcDbEntity
  8
0
  6
Continuous
 62
     7
100
AcDbLine
 10
118.3153168088221
 20
141.2983418516945
 30
0.0
 11
118.4709925041952
 21
141.2545047370156
 31
0.0
  0
LINE
  5
138
330
1F
100
AcDbEntity
  8
0
  6
Continuous
 62
     7
100
AcDbLine
 10
108.7273341106975
 20
139.4279162500727
 30
0.0
 11
108.7273341106975
 21
139.4452810678393
 31
0.0
  0
LINE
  5
139
330
1F
100
AcDbEntity
  8
0
  6
Continuous
 62
     7
100
AcDbLine
 10
108.7273341106975
 20
139.4279162500727
 30
0.0
 11
132.0958282820561
 21
139.4279162500727
 31
0.0
  0
LINE
  5
13A
330
1F
100
AcDbEntity
  8
0
  6
Continuous
 62
     7
100
AcDbLine
 10
132.0958282820561
 20
139.4279162500727
 30
0.0
 11
131.9252545756658
 21
139.4452810678393
 31
0.0
  0
LINE
  5
13B
330
1F
100
AcDbEntity
  8
0
  6
Continuous
 62
     7
100
AcDbLine
 10
79.88776954384213
 20
144.0812756876506
 30
0.0
 11
81.23189253959436
 21
143.592054926004
 31
0.0
  0
LINE
  5
13C
330
1F
100
AcDbEntity
  8
0
  6
Continuous
 62
     7
100
AcDbLine
 10
142.2021353378228
 20
145.2297438241723
 30
0.0
 11
125.7222889496069
 21
145.2297438241716
 31
0.0
  0
LINE
  5
13D
330
1F
100
AcDbEntity
  8
0
  6
Continuous
 62
     7
100
AcDbLine
 10
124.9772606398648
 20
144.9585756957396
 30
0.0
 11
124.7131561594871
 21
144.8624495261457
 31
0.0
  0
LINE
  5
13E
330
1F
100
AcDbEntity
  8
0
  6
Continuous
 62
     7
100
AcDbLine
 10
124.9772606398648
 20
144.9585756957396
 30
0.0
 11
125.5351211199453
 21
145.1616203053624
 31
0.0
  0
LINE
  5
13F
330
1F
100
AcDbEntity
  8
0
  6
Continuous
 62
     7
100
AcDbLine
 10
142.2021353378228
 20
145.2297438241723
 30
0.0
 11
142.827334110698
 21
145.2297438241723
 31
0.0
  0
LINE
  5
140
330
1F
100
AcDbEntity
  8
0
  6
Continuous
 62
     7
100
AcDbLine
 10
142.1780298496317
 20
145.1616203053624
 30
0.0
 11
125.5351211199453
 21
145.1616203053624
 31
0.0
  0
LINE
  5
141
330
1F
100
AcDbEntity
  8
0
  6
Continuous
 62
     7
100
AcDbLine
 10
140.5234886898271
 20
144.9585756957396
 30
0.0
 11
124.9772606398648
 21
144.9585756957396
 31
0.0
  0
LINE
  5
142
330
1F
100
AcDbEntity
  8
0
  6
Continuous
 62
     7
100
AcDbLine
 10
140.5234886898271
 20
144.9585756957396
 30
0.0
 11
140.571230480301
 21
144.8624495261457
 31
0.0
  0
LINE
  5
143
330
1F
100
AcDbEntity
  8
0
  6
Continuous
 62
     7
100
AcDbLine
 10
125.5351211199453
 20
145.1616203053624
 30
0.0
 11
125.7222889496069
 21
145.2297438241716
 31
0.0
  0
LINE
  5
144
330
1F
100
AcDbEntity
  8
0
  6
Continuous
 62
     7
100
AcDbLine
 10
124.7131561594871
 20
144.8624495261457
 30
0.0
 11
140.571230480301
 21
144.8624495261457
 31
0.0
  0
LINE
  5
145
330
1F
100
AcDbEntity
  8
0
  6
Continuous
 62
     7
100
AcDbLine
 10
124.0595656290533
 20
144.6245620276695
 30
0.0
 11
138.9339943052488
 21
144.6245620276695
 31
0.0
  0
LINE
  5
146
330
1F
100
AcDbEntity
  8
0
  6
Continuous
 62
     7
100
AcDbLine
 10
133.5154140229997
 20
134.7797438241709
 30
0.0
 11
133.3654140229999
 21
134.7297438241707
 31
0.0
  0
LINE
  5
147
330
1F
100
AcDbEntity
  8
0
  6
Continuous
 62
     7
100
AcDbLine
 10
132.1012035490609
 20
136.536290554973
 30
0.0
 11
132.2692636986888
 21
136.5604827445331
 31
0.0
  0
LINE
  5
148
330
1F
100
AcDbEntity
  8
0
  6
Continuous
 62
     7
100
AcDbLine
 10
124.0595656290533
 20
144.6245620276695
 30
0.0
 11
124.7131561594871
 21
144.8624495261457
 31
0.0
  0
LINE
  5
149
330
1F
100
AcDbEntity
  8
0
  6
Continuous
 62
     7
100
AcDbLine
 10
59.62733411069792
 20
145.2297438241715
 30
0.0
 11
55.97733411069783
 21
145.2297438241723
 31
0.0
  0
LINE
  5
14A
330
1F
100
AcDbEntity
  8
0
  6
Continuous
 62
     7
100
AcDbLine
 10
142.827334110698
 20
145.2297438241723
 30
0.0
 11
146.4773341106978
 21
145.2297438241723
 31
0.0
  0
LINE
  5
14B
330
1F
100
AcDbEntity
  8
1
  6
Continuous
 62
     7
100
AcDbLine
 10
263.107189840091
 20
119.5297438241738
 30
0.0
 11
263.107189840091
 21
116.6297438241738
 31
0.0
  0
LINE
  5
14C
330
1F
100
AcDbEntity
  8
0
  6
Continuous
 62
     7
100
AcDbLine
 10
255.0773350575347
 20
141.2297438241691
 30
0.0
 11
255.0773350575347
 21
142.7297438241688
 31
0.0
  0
LINE
  5
14D
330
1F
100
AcDbEntity
  8
0
  6
Continuous
 62
     7
100
AcDbLine
 10
254.2423985669958
 20
143.2297438241689
 30
0.0
 11
254.5773350575347
 21
143.2297438241691
 31
0.0
  0
LINE
  5
14E
330
1F
100
AcDbEntity
  8
0
  6
Continuous
 62
     7
100
AcDbLine
 10
254.2423985669958
 20
143.2297438241689
 30
0.0
 11
251.9763145431017
 21
143.2297438241691
 31
0.0
  0
LINE
  5
14F
330
1F
100
AcDbEntity
  8
0
  6
Continuous
 62
     7
100
AcDbLine
 10
254.2423985669958
 20
140.7297438241689
 30
0.0
 11
254.5773350575347
 21
140.7297438241691
 31
0.0
  0
LINE
  5
150
330
1F
100
AcDbEntity
  8
0
  6
Continuous
 62
     7
100
AcDbLine
 10
254.2423985669958
 20
140.7297438241689
 30
0.0
 11
253.5085091338602
 21
140.7297438241691
 31
0.0
  0
LINE
  5
151
330
1F
100
AcDbEntity
  8
0
  6
Continuous
 62
     7
100
AcDbLine
 10
55.47733411069783
 20
144.7297438241723
 30
0.0
 11
55.47733411069783
 21
125.6928004177156
 31
0.0
  0
LINE
  5
152
330
1F
100
AcDbEntity
  8
0
  6
Continuous
 62
     7
100
AcDbLine
 10
60.72733411069783
 20
125.0091366871683
 30
0.0
 11
60.72733411069783
 21
114.629674023325
 31
0.0
  0
LINE
  5
153
330
1F
100
AcDbEntity
  8
0
  6
Continuous
 62
     7
100
AcDbLine
 10
55.47733411069783
 20
121.4297438241737
 30
0.0
 11
55.47733411069783
 21
125.6928004177156
 31
0.0
  0
LINE
  5
154
330
1F
100
AcDbEntity
  8
0
  6
Continuous
 62
     7
100
AcDbLine
 10
55.47733411069783
 20
121.4297438241737
 30
0.0
 11
55.47733411069783
 21
117.6297438241737
 31
0.0
  0
LINE
  5
155
330
1F
100
AcDbEntity
  8
0
  6
Continuous
 62
     7
100
AcDbLine
 10
141.627334110698
 20
112.8297438241734
 30
0.0
 11
141.627334110698
 21
114.629674023325
 31
0.0
  0
LINE
  5
156
330
1F
100
AcDbEntity
  8
0
  6
Continuous
 62
     7
100
AcDbLine
 10
141.627334110698
 20
125.0091366871683
 30
0.0
 11
141.627334110698
 21
114.629674023325
 31
0.0
  0
LINE
  5
157
330
1F
100
AcDbEntity
  8
0
  6
Continuous
 62
     7
100
AcDbLine
 10
55.47733411069783
 20
114.9953508741345
 30
0.0
 11
55.47733411069783
 21
117.6297438241737
 31
0.0
  0
LINE
  5
158
330
1F
100
AcDbEntity
  8
0
  6
Continuous
 62
     7
100
AcDbLine
 10
55.47733411069794
 20
113.3297438241733
 30
0.0
 11
55.47733411069783
 21
114.9953508741345
 31
0.0
  0
LINE
  5
159
330
1F
100
AcDbEntity
  8
0
  6
Continuous
 62
     7
100
AcDbLine
 10
60.72733411069794
 20
112.8297438241734
 30
0.0
 11
60.72733411069783
 21
114.629674023325
 31
0.0
  0
LINE
  5
15A
330
1F
100
AcDbEntity
  8
0
  6
Continuous
 62
     7
100
AcDbLine
 10
146.877334110698
 20
113.3297438241734
 30
0.0
 11
146.877334110698
 21
114.9953508741346
 31
0.0
  0
LINE
  5
15B
330
1F
100
AcDbEntity
  8
0
  6
Continuous
 62
     7
100
AcDbLine
 10
146.877334110698
 20
114.9953508741346
 30
0.0
 11
146.877334110698
 21
117.6297438241743
 31
0.0
  0
LINE
  5
15C
330
1F
100
AcDbEntity
  8
0
  6
Continuous
 62
     7
100
AcDbLine
 10
146.377334110698
 20
112.8297438241734
 30
0.0
 11
141.627334110698
 21
112.8297438241734
 31
0.0
  0
LINE
  5
15D
330
1F
100
AcDbEntity
  8
0
  6
Continuous
 62
     7
100
AcDbLine
 10
55.97733411069794
 20
112.8297438241733
 30
0.0
 11
60.72733411069794
 21
112.8297438241734
 31
0.0
  0
LINE
  5
15E
330
1F
100
AcDbEntity
  8
0
  6
Continuous
 62
     7
100
AcDbLine
 10
63.52733411069789
 20
127.6201789283537
 30
0.0
 11
138.8273341106979
 21
127.6201789283538
 31
0.0
  0
LINE
  5
15F
330
1F
100
AcDbEntity
  8
0
  6
Continuous
 62
     7
100
AcDbLine
 10
146.877334110698
 20
121.4297438241743
 30
0.0
 11
146.877334110698
 21
125.6928004177156
 31
0.0
  0
LINE
  5
160
330
1F
100
AcDbEntity
  8
0
  6
Continuous
 62
     7
100
AcDbLine
 10
146.877334110698
 20
125.6928004177156
 30
0.0
 11
146.877334110698
 21
144.7297438241723
 31
0.0
  0
LINE
  5
161
330
1F
100
AcDbEntity
  8
0
  6
Continuous
 62
     7
100
AcDbLine
 10
146.877334110698
 20
117.6297438241743
 30
0.0
 11
146.877334110698
 21
121.4297438241743
 31
0.0
  0
LINE
  5
162
330
1F
100
AcDbEntity
  8
0
  6
Continuous
 62
     7
100
AcDbLine
 10
55.47733411069783
 20
121.4297438241737
 30
0.0
 11
55.47733411069783
 21
117.6297438241737
 31
0.0
  0
LINE
  5
163
330
1F
100
AcDbEntity
  8
0
  6
Continuous
 62
     7
100
AcDbLine
 10
67.97733457743823
 20
115.7297438241743
 30
0.0
 11
61.47733457743823
 21
115.7297438241743
 31
0.0
  0
LINE
  5
164
330
1F
100
AcDbEntity
  8
0
  6
Continuous
 62
     7
100
AcDbLine
 10
61.47733457743823
 20
126.7876514798211
 30
0.0
 11
61.47733457743823
 21
122.9297438241737
 31
0.0
  0
LINE
  5
165
330
1F
100
AcDbEntity
  8
0
  6
Continuous
 62
     7
100
AcDbLine
 10
60.97733411069783
 20
122.9297438241737
 30
0.0
 11
61.47733457743823
 21
122.9297438241737
 31
0.0
  0
LINE
  5
166
330
1F
100
AcDbEntity
  8
0
  6
Continuous
 62
     7
100
AcDbLine
 10
60.97733411069783
 20
122.9297438241737
 30
0.0
 11
60.97733411069783
 21
116.1297438241737
 31
0.0
  0
LINE
  5
167
330
1F
100
AcDbEntity
  8
0
  6
Continuous
 62
     7
100
AcDbLine
 10
61.47733457743823
 20
122.9297438241737
 30
0.0
 11
61.47733457743823
 21
116.1297438241737
 31
0.0
  0
LINE
  5
168
330
1F
100
AcDbEntity
  8
0
  6
Continuous
 62
     7
100
AcDbLine
 10
60.72733411069794
 20
122.6797438241738
 30
0.0
 11
60.97733411069783
 21
122.9297438241737
 31
0.0
  0
LINE
  5
169
330
1F
100
AcDbEntity
  8
0
  6
Continuous
 62
     7
100
AcDbLine
 10
113.1773345774382
 20
85.2297438241743
 30
0.0
 11
113.1773345774382
 21
69.72974382417428
 31
0.0
  0
LINE
  5
16A
330
1F
100
AcDbEntity
  8
0
  6
Continuous
 62
     7
100
AcDbLine
 10
112.1773345774382
 20
68.72974382417428
 30
0.0
 11
110.1773345774382
 21
68.72974382417428
 31
0.0
  0
LINE
  5
16B
330
1F
100
AcDbEntity
  8
0
  6
Continuous
 62
     7
100
AcDbLine
 10
134.3773345774383
 20
86.2297438241743
 30
0.0
 11
114.1773345774382
 21
86.2297438241743
 31
0.0
  0
LINE
  5
16C
330
1F
100
AcDbEntity
  8
0
  6
Continuous
 62
     7
100
AcDbLine
 10
114.1773345774382
 20
86.2297438241743
 30
0.0
 11
106.8439032040411
 21
86.22974382417428
 31
0.0
  0
LINE
  5
16D
330
1F
100
AcDbEntity
  8
0
  6
Continuous
 62
     7
100
AcDbLine
 10
134.3773345774383
 20
86.2297438241743
 30
0.0
 11
137.8773345774383
 21
86.2297438241743
 31
0.0
  0
LINE
  5
16E
330
1F
100
AcDbEntity
  8
0
  6
Continuous
 62
     7
100
AcDbLine
 10
140.8773345774383
 20
108.4001808100756
 30
0.0
 11
140.8773345774383
 21
89.2297438241743
 31
0.0
  0
LINE
  5
16F
330
1F
100
AcDbEntity
  8
0
  6
Continuous
 62
     7
100
AcDbLine
 10
140.8773345774383
 20
108.4001808100756
 30
0.0
 11
140.8773345774383
 21
115.7297438241743
 31
0.0
  0
LINE
  5
170
330
1F
100
AcDbEntity
  8
0
  6
Continuous
 62
     7
100
AcDbLine
 10
134.3773345774383
 20
110.5725652897636
 30
0.0
 11
140.7424337632219
 21
110.5725652897636
 31
0.0
  0
LINE
  5
171
330
1F
100
AcDbEntity
  8
0
  6
Continuous
 62
     7
100
AcDbLine
 10
134.3773345774383
 20
110.086922358585
 30
0.0
 11
140.7424337632219
 21
110.086922358585
 31
0.0
  0
LINE
  5
172
330
1F
100
AcDbEntity
  8
0
  6
Continuous
 62
     7
100
AcDbLine
 10
134.3773345774383
 20
109.6725652897636
 30
0.0
 11
140.5122353916544
 21
109.6725652897636
 31
0.0
  0
LINE
  5
173
330
1F
100
AcDbEntity
  8
0
  6
Continuous
 62
     7
100
AcDbLine
 10
140.5122353916544
 20
110.986922358585
 30
0.0
 11
140.7424337632219
 21
110.5725652897636
 31
0.0
  0
LINE
  5
174
330
1F
100
AcDbEntity
  8
0
  6
Continuous
 62
     7
100
AcDbLine
 10
134.3773345774383
 20
109.186922358585
 30
0.0
 11
140.5122353916544
 21
109.186922358585
 31
0.0
  0
LINE
  5
175
330
1F
100
AcDbEntity
  8
0
  6
Continuous
 62
     7
100
AcDbLine
 10
134.3773345774383
 20
108.4001808100756
 30
0.0
 11
140.8773345774383
 21
108.4001808100756
 31
0.0
  0
LINE
  5
176
330
1F
100
AcDbEntity
  8
0
  6
Continuous
 62
     7
100
AcDbLine
 10
134.3773345774383
 20
108.6430022756649
 30
0.0
 11
140.814413215499
 21
108.6430022756649
 31
0.0
  0
LINE
  5
177
330
1F
100
AcDbEntity
  8
0
  6
Continuous
 62
     7
100
AcDbLine
 10
140.5122353916544
 20
109.6725652897636
 30
0.0
 11
140.7424337632219
 21
110.086922358585
 31
0.0
  0
LINE
  5
178
330
1F
100
AcDbEntity
  8
0
  6
Continuous
 62
     7
100
AcDbLine
 10
140.5122353916544
 20
114.586922358585
 30
0.0
 11
140.7424337632219
 21
114.1725652897636
 31
0.0
  0
LINE
  5
179
330
1F
100
AcDbEntity
  8
0
  6
Continuous
 62
     7
100
AcDbLine
 10
140.5122353916544
 20
111.4725652897636
 30
0.0
 11
140.7424337632219
 21
111.886922358585
 31
0.0
  0
LINE
  5
17A
330
1F
100
AcDbEntity
  8
0
  6
Continuous
 62
     7
100
AcDbLine
 10
134.3773345774383
 20
113.2725652897636
 30
0.0
 11
140.5122353916544
 21
113.2725652897636
 31
0.0
  0
LINE
  5
17B
330
1F
100
AcDbEntity
  8
0
  6
Continuous
 62
     7
100
AcDbLine
 10
134.3773345774383
 20
112.3725652897636
 30
0.0
 11
140.7424337632219
 21
112.3725652897636
 31
0.0
  0
LINE
  5
17C
330
1F
100
AcDbEntity
  8
0
  6
Continuous
 62
     7
100
AcDbLine
 10
134.3773345774383
 20
112.786922358585
 30
0.0
 11
140.5122353916544
 21
112.786922358585
 31
0.0
  0
LINE
  5
17D
330
1F
100
AcDbEntity
  8
0
  6
Continuous
 62
     7
100
AcDbLine
 10
134.3773345774383
 20
113.686922358585
 30
0.0
 11
140.7424337632219
 21
113.686922358585
 31
0.0
  0
LINE
  5
17E
330
1F
100
AcDbEntity
  8
0
  6
Continuous
 62
     7
100
AcDbLine
 10
134.3773345774383
 20
114.1725652897636
 30
0.0
 11
140.7424337632219
 21
114.1725652897636
 31
0.0
  0
LINE
  5
17F
330
1F
100
AcDbEntity
  8
0
  6
Continuous
 62
     7
100
AcDbLine
 10
134.3773345774383
 20
114.586922358585
 30
0.0
 11
140.5122353916544
 21
114.586922358585
 31
0.0
  0
LINE
  5
180
330
1F
100
AcDbEntity
  8
0
  6
Continuous
 62
     7
100
AcDbLine
 10
134.3773345774383
 20
110.986922358585
 30
0.0
 11
140.5122353916544
 21
110.986922358585
 31
0.0
  0
LINE
  5
181
330
1F
100
AcDbEntity
  8
0
  6
Continuous
 62
     7
100
AcDbLine
 10
134.3773345774383
 20
111.4725652897636
 30
0.0
 11
140.5122353916544
 21
111.4725652897636
 31
0.0
  0
LINE
  5
182
330
1F
100
AcDbEntity
  8
0
  6
Continuous
 62
     7
100
AcDbLine
 10
134.3773345774383
 20
111.886922358585
 30
0.0
 11
140.7424337632219
 21
111.886922358585
 31
0.0
  0
LINE
  5
183
330
1F
100
AcDbEntity
  8
0
  6
Continuous
 62
     7
100
AcDbLine
 10
134.3773345774383
 20
115.7297438241743
 30
0.0
 11
140.8773345774383
 21
115.7297438241743
 31
0.0
  0
LINE
  5
184
330
1F
100
AcDbEntity
  8
0
  6
Continuous
 62
     7
100
AcDbLine
 10
134.3773345774383
 20
115.0725652897636
 30
0.0
 11
140.5122353916544
 21
115.0725652897636
 31
0.0
  0
LINE
  5
185
330
1F
100
AcDbEntity
  8
0
  6
Continuous
 62
     7
100
AcDbLine
 10
140.5122353916544
 20
115.0725652897636
 30
0.0
 11
140.8773345774383
 21
115.7297438241743
 31
0.0
  0
LINE
  5
186
330
1F
100
AcDbEntity
  8
0
  6
Continuous
 62
     7
100
AcDbLine
 10
140.5122353916544
 20
112.786922358585
 30
0.0
 11
140.7424337632219
 21
112.3725652897636
 31
0.0
  0
LINE
  5
187
330
1F
100
AcDbEntity
  8
0
  6
Continuous
 62
     7
100
AcDbLine
 10
140.5122353916544
 20
113.2725652897636
 30
0.0
 11
140.7424337632219
 21
113.686922358585
 31
0.0
  0
LINE
  5
188
330
1F
100
AcDbEntity
  8
0
  6
Continuous
 62
     7
100
AcDbLine
 10
140.5122353916544
 20
109.186922358585
 30
0.0
 11
140.814413215499
 21
108.6430022756649
 31
0.0
  0
LINE
  5
189
330
1F
100
AcDbEntity
  8
0
  6
Continuous
 62
     7
100
AcDbLine
 10
67.97733457743823
 20
108.6430022756649
 30
0.0
 11
134.3773345774383
 21
108.6430022756649
 31
0.0
  0
LINE
  5
18A
330
1F
100
AcDbEntity
  8
0
  6
Continuous
 62
     7
100
AcDbLine
 10
67.97733457743823
 20
108.4001808100756
 30
0.0
 11
134.3773345774383
 21
108.4001808100756
 31
0.0
  0
LINE
  5
18B
330
1F
100
AcDbEntity
  8
0
  6
Continuous
 62
     7
100
AcDbLine
 10
67.97733457743823
 20
110.986922358585
 30
0.0
 11
134.3773345774383
 21
110.986922358585
 31
0.0
  0
LINE
  5
18C
330
1F
100
AcDbEntity
  8
0
  6
Continuous
 62
     7
100
AcDbLine
 10
67.97733457743823
 20
111.4725652897636
 30
0.0
 11
134.3773345774383
 21
111.4725652897636
 31
0.0
  0
LINE
  5
18D
330
1F
100
AcDbEntity
  8
0
  6
Continuous
 62
     7
100
AcDbLine
 10
134.3773345774383
 20
111.886922358585
 30
0.0
 11
67.97733457743823
 21
111.886922358585
 31
0.0
  0
LINE
  5
18E
330
1F
100
AcDbEntity
  8
0
  6
Continuous
 62
     7
100
AcDbLine
 10
134.3773345774383
 20
115.7297438241743
 30
0.0
 11
67.97733457743823
 21
115.7297438241743
 31
0.0
  0
LINE
  5
18F
330
1F
100
AcDbEntity
  8
0
  6
Continuous
 62
     7
100
AcDbLine
 10
67.97733457743823
 20
115.0725652897636
 30
0.0
 11
134.3773345774383
 21
115.0725652897636
 31
0.0
  0
LINE
  5
190
330
1F
100
AcDbEntity
  8
0
  6
Continuous
 62
     7
100
AcDbLine
 10
67.97733457743823
 20
114.5869223585849
 30
0.0
 11
134.3773345774383
 21
114.586922358585
 31
0.0
  0
LINE
  5
191
330
1F
100
AcDbEntity
  8
0
  6
Continuous
 62
     7
100
AcDbLine
 10
67.97733457743823
 20
113.2725652897636
 30
0.0
 11
134.3773345774383
 21
113.2725652897636
 31
0.0
  0
LINE
  5
192
330
1F
100
AcDbEntity
  8
0
  6
Continuous
 62
     7
100
AcDbLine
 10
134.3773345774383
 20
114.1725652897636
 30
0.0
 11
67.97733457743823
 21
114.1725652897636
 31
0.0
  0
LINE
  5
193
330
1F
100
AcDbEntity
  8
0
  6
Continuous
 62
     7
100
AcDbLine
 10
134.3773345774383
 20
113.686922358585
 30
0.0
 11
67.97733457743823
 21
113.686922358585
 31
0.0
  0
LINE
  5
194
330
1F
100
AcDbEntity
  8
0
  6
Continuous
 62
     7
100
AcDbLine
 10
67.97733457743823
 20
112.7869223585849
 30
0.0
 11
134.3773345774383
 21
112.786922358585
 31
0.0
  0
LINE
  5
195
330
1F
100
AcDbEntity
  8
0
  6
Continuous
 62
     7
100
AcDbLine
 10
67.97733457743823
 20
110.5725652897636
 30
0.0
 11
134.3773345774383
 21
110.5725652897636
 31
0.0
  0
LINE
  5
196
330
1F
100
AcDbEntity
  8
0
  6
Continuous
 62
     7
100
AcDbLine
 10
67.97733457743823
 20
110.0869223585849
 30
0.0
 11
134.3773345774383
 21
110.086922358585
 31
0.0
  0
LINE
  5
197
330
1F
100
AcDbEntity
  8
0
  6
Continuous
 62
     7
100
AcDbLine
 10
67.97733457743823
 20
109.6725652897636
 30
0.0
 11
134.3773345774383
 21
109.6725652897636
 31
0.0
  0
LINE
  5
198
330
1F
100
AcDbEntity
  8
0
  6
Continuous
 62
     7
100
AcDbLine
 10
67.97733457743823
 20
109.186922358585
 30
0.0
 11
134.3773345774383
 21
109.186922358585
 31
0.0
  0
LINE
  5
199
330
1F
100
AcDbEntity
  8
0
  6
Continuous
 62
     7
100
AcDbLine
 10
134.3773345774383
 20
112.3725652897636
 30
0.0
 11
67.97733457743823
 21
112.3725652897636
 31
0.0
  0
LINE
  5
19A
330
1F
100
AcDbEntity
  8
0
  6
Continuous
 62
     7
100
AcDbLine
 10
95.51076595083526
 20
86.22974382417428
 30
0.0
 11
88.17733457743822
 21
86.22974382417428
 31
0.0
  0
LINE
  5
19B
330
1F
100
AcDbEntity
  8
0
  6
Continuous
 62
     7
100
AcDbLine
 10
88.17733457743822
 20
86.22974382417428
 30
0.0
 11
67.97733457743823
 21
86.22974382417428
 31
0.0
  0
LINE
  5
19C
330
1F
100
AcDbEntity
  8
0
  6
Continuous
 62
     7
100
AcDbLine
 10
61.84243376322195
 20
113.2725652897636
 30
0.0
 11
61.61223539165451
 21
113.686922358585
 31
0.0
  0
LINE
  5
19D
330
1F
100
AcDbEntity
  8
0
  6
Continuous
 62
     7
100
AcDbLine
 10
67.97733457743823
 20
109.186922358585
 30
0.0
 11
61.84243376322195
 21
109.186922358585
 31
0.0
  0
LINE
  5
19E
330
1F
100
AcDbEntity
  8
0
  6
Continuous
 62
     7
100
AcDbLine
 10
67.97733457743823
 20
108.6430022756649
 30
0.0
 11
61.5402559393774
 21
108.6430022756649
 31
0.0
  0
LINE
  5
19F
330
1F
100
AcDbEntity
  8
0
  6
Continuous
 62
     7
100
AcDbLine
 10
67.97733457743823
 20
113.686922358585
 30
0.0
 11
61.61223539165451
 21
113.686922358585
 31
0.0
  0
LINE
  5
1A0
330
1F
100
AcDbEntity
  8
0
  6
Continuous
 62
     7
100
AcDbLine
 10
67.97733457743823
 20
112.3725652897636
 30
0.0
 11
61.61223539165451
 21
112.3725652897636
 31
0.0
  0
LINE
  5
1A1
330
1F
100
AcDbEntity
  8
0
  6
Continuous
 62
     7
100
AcDbLine
 10
67.97733457743823
 20
113.2725652897636
 30
0.0
 11
61.84243376322195
 21
113.2725652897636
 31
0.0
  0
LINE
  5
1A2
330
1F
100
AcDbEntity
  8
0
  6
Continuous
 62
     7
100
AcDbLine
 10
67.97733457743823
 20
112.7869223585849
 30
0.0
 11
61.84243376322195
 21
112.7869223585849
 31
0.0
  0
LINE
  5
1A3
330
1F
100
AcDbEntity
  8
0
  6
Continuous
 62
     7
100
AcDbLine
 10
67.97733457743823
 20
111.886922358585
 30
0.0
 11
61.61223539165451
 21
111.8869223585849
 31
0.0
  0
LINE
  5
1A4
330
1F
100
AcDbEntity
  8
0
  6
Continuous
 62
     7
100
AcDbLine
 10
61.84243376322195
 20
110.986922358585
 30
0.0
 11
61.61223539165451
 21
110.5725652897636
 31
0.0
  0
LINE
  5
1A5
330
1F
100
AcDbEntity
  8
0
  6
Continuous
 62
     7
100
AcDbLine
 10
61.84243376322195
 20
111.4725652897636
 30
0.0
 11
61.61223539165451
 21
111.8869223585849
 31
0.0
  0
LINE
  5
1A6
330
1F
100
AcDbEntity
  8
0
  6
Continuous
 62
     7
100
AcDbLine
 10
61.84243376322195
 20
109.6725652897636
 30
0.0
 11
61.61223539165451
 21
110.0869223585849
 31
0.0
  0
LINE
  5
1A7
330
1F
100
AcDbEntity
  8
0
  6
Continuous
 62
     7
100
AcDbLine
 10
61.47733457743823
 20
108.4001808100756
 30
0.0
 11
61.47733457743823
 21
89.22974382417428
 31
0.0
  0
LINE
  5
1A8
330
1F
100
AcDbEntity
  8
0
  6
Continuous
 62
     7
100
AcDbLine
 10
61.47733457743823
 20
116.1297438241737
 30
0.0
 11
61.47733457743823
 21
115.7297438241743
 31
0.0
  0
LINE
  5
1A9
330
1F
100
AcDbEntity
  8
0
  6
Continuous
 62
     7
100
AcDbLine
 10
61.84243376322195
 20
112.7869223585849
 30
0.0
 11
61.61223539165451
 21
112.3725652897636
 31
0.0
  0
LINE
  5
1AA
330
1F
100
AcDbEntity
  8
0
  6
Continuous
 62
     7
100
AcDbLine
 10
67.97733457743823
 20
110.0869223585849
 30
0.0
 11
61.61223539165451
 21
110.0869223585849
 31
0.0
  0
LINE
  5
1AB
330
1F
100
AcDbEntity
  8
0
  6
Continuous
 62
     7
100
AcDbLine
 10
67.97733457743823
 20
109.6725652897636
 30
0.0
 11
61.84243376322195
 21
109.6725652897636
 31
0.0
  0
LINE
  5
1AC
330
1F
100
AcDbEntity
  8
0
  6
Continuous
 62
     7
100
AcDbLine
 10
67.97733457743823
 20
110.5725652897636
 30
0.0
 11
61.61223539165451
 21
110.5725652897636
 31
0.0
  0
LINE
  5
1AD
330
1F
100
AcDbEntity
  8
0
  6
Continuous
 62
     7
100
AcDbLine
 10
61.84243376322195
 20
109.186922358585
 30
0.0
 11
61.5402559393774
 21
108.6430022756649
 31
0.0
  0
LINE
  5
1AE
330
1F
100
AcDbEntity
  8
0
  6
Continuous
 62
     7
100
AcDbLine
 10
67.97733457743823
 20
86.22974382417428
 30
0.0
 11
64.47733457743823
 21
86.22974382417428
 31
0.0
  0
LINE
  5
1AF
330
1F
100
AcDbEntity
  8
0
  6
Continuous
 62
     7
100
AcDbLine
 10
60.97733411069783
 20
116.1297438241737
 30
0.0
 11
61.47733457743823
 21
116.1297438241737
 31
0.0
  0
LINE
  5
1B0
330
1F
100
AcDbEntity
  8
0
  6
Continuous
 62
     7
100
AcDbLine
 10
60.72733411069794
 20
116.3797438241736
 30
0.0
 11
60.97733411069783
 21
116.1297438241737
 31
0.0
  0
LINE
  5
1B1
330
1F
100
AcDbEntity
  8
0
  6
Continuous
 62
     7
100
AcDbLine
 10
89.17733457743822
 20
85.22974382417428
 30
0.0
 11
89.17733457743822
 21
69.72974382417428
 31
0.0
  0
LINE
  5
1B2
330
1F
100
AcDbEntity
  8
0
  6
Continuous
 62
     7
100
AcDbLine
 10
67.97733457743823
 20
114.1725652897636
 30
0.0
 11
61.61223539165451
 21
114.1725652897636
 31
0.0
  0
LINE
  5
1B3
330
1F
100
AcDbEntity
  8
0
  6
Continuous
 62
     7
100
AcDbLine
 10
61.84243376322195
 20
114.5869223585849
 30
0.0
 11
61.61223539165451
 21
114.1725652897636
 31
0.0
  0
LINE
  5
1B4
330
1F
100
AcDbEntity
  8
0
  6
Continuous
 62
     7
100
AcDbLine
 10
67.97733457743823
 20
114.5869223585849
 30
0.0
 11
61.84243376322195
 21
114.5869223585849
 31
0.0
  0
LINE
  5
1B5
330
1F
100
AcDbEntity
  8
0
  6
Continuous
 62
     7
100
AcDbLine
 10
67.97733457743823
 20
108.4001808100756
 30
0.0
 11
61.47733457743823
 21
108.4001808100756
 31
0.0
  0
LINE
  5
1B6
330
1F
100
AcDbEntity
  8
0
  6
Continuous
 62
     7
100
AcDbLine
 10
67.97733457743823
 20
110.986922358585
 30
0.0
 11
61.84243376322195
 21
110.986922358585
 31
0.0
  0
LINE
  5
1B7
330
1F
100
AcDbEntity
  8
0
  6
Continuous
 62
     7
100
AcDbLine
 10
67.97733457743823
 20
111.4725652897636
 30
0.0
 11
61.84243376322195
 21
111.4725652897636
 31
0.0
  0
LINE
  5
1B8
330
1F
100
AcDbEntity
  8
0
  6
Continuous
 62
     7
100
AcDbLine
 10
67.97733457743823
 20
115.0725652897636
 30
0.0
 11
61.84243376322195
 21
115.0725652897636
 31
0.0
  0
LINE
  5
1B9
330
1F
100
AcDbEntity
  8
0
  6
Continuous
 62
     7
100
AcDbLine
 10
61.47733457743823
 20
108.4001808100756
 30
0.0
 11
61.47733457743823
 21
115.7297438241743
 31
0.0
  0
LINE
  5
1BA
330
1F
100
AcDbEntity
  8
0
  6
Continuous
 62
     7
100
AcDbLine
 10
61.84243376322195
 20
115.0725652897636
 30
0.0
 11
61.47733457743823
 21
115.7297438241743
 31
0.0
  0
LINE
  5
1BB
330
1F
100
AcDbEntity
  8
0
  6
Continuous
 62
     7
100
AcDbLine
 10
146.877334110698
 20
117.6297438241743
 30
0.0
 11
146.877334110698
 21
121.4297438241743
 31
0.0
  0
LINE
  5
1BC
330
1F
100
AcDbEntity
  8
0
  6
Continuous
 62
     7
100
AcDbLine
 10
141.627334110698
 20
122.6797438241743
 30
0.0
 11
141.377334110698
 21
122.9297438241743
 31
0.0
  0
LINE
  5
1BD
330
1F
100
AcDbEntity
  8
0
  6
Continuous
 62
     7
100
AcDbLine
 10
141.377334110698
 20
116.1297438241743
 30
0.0
 11
140.8773345774383
 21
116.1297438241743
 31
0.0
  0
LINE
  5
1BE
330
1F
100
AcDbEntity
  8
0
  6
Continuous
 62
     7
100
AcDbLine
 10
141.377334110698
 20
122.9297438241743
 30
0.0
 11
140.8773345774383
 21
122.9297438241743
 31
0.0
  0
LINE
  5
1BF
330
1F
100
AcDbEntity
  8
0
  6
Continuous
 62
     7
100
AcDbLine
 10
141.627334110698
 20
116.3797438241744
 30
0.0
 11
141.377334110698
 21
116.1297438241743
 31
0.0
  0
LINE
  5
1C0
330
1F
100
AcDbEntity
  8
0
  6
Continuous
 62
     7
100
AcDbLine
 10
141.377334110698
 20
116.1297438241743
 30
0.0
 11
141.377334110698
 21
122.9297438241743
 31
0.0
  0
LINE
  5
1C1
330
1F
100
AcDbEntity
  8
0
  6
Continuous
 62
     7
100
AcDbLine
 10
140.8773345774383
 20
116.1297438241743
 30
0.0
 11
140.8773345774383
 21
115.7297438241743
 31
0.0
  0
LINE
  5
1C2
330
1F
100
AcDbEntity
  8
0
  6
Continuous
 62
     7
100
AcDbLine
 10
140.8773345774383
 20
126.7876505441709
 30
0.0
 11
140.8773345774383
 21
122.9297438241743
 31
0.0
  0
LINE
  5
1C3
330
1F
100
AcDbEntity
  8
0
  6
Continuous
 62
     7
100
AcDbLine
 10
140.8773345774383
 20
122.9297438241743
 30
0.0
 11
140.8773345774383
 21
116.1297438241743
 31
0.0
  0
LINE
  5
1C4
330
1F
100
AcDbEntity
  8
0
  6
Continuous
 62
     7
100
AcDbLine
 10
239.7773347032662
 20
124.0766212706768
 30
0.0
 11
239.7773347032662
 21
115.7297438241743
 31
0.0
  0
LINE
  5
1C5
330
1F
100
AcDbEntity
  8
0
  6
Continuous
 62
     7
100
AcDbLine
 10
233.2773347032662
 20
109.6725652897636
 30
0.0
 11
233.2773347032662
 21
109.186922358585
 31
0.0
  0
LINE
  5
1C6
330
1F
100
AcDbEntity
  8
0
  6
Continuous
 62
     7
100
AcDbLine
 10
233.2773347032662
 20
108.6430022756649
 30
0.0
 11
233.2773347032662
 21
108.4001808100756
 31
0.0
  0
LINE
  5
1C7
330
1F
100
AcDbEntity
  8
0
  6
Continuous
 62
     7
100
AcDbLine
 10
233.2773347032662
 20
111.886922358585
 30
0.0
 11
233.2773347032662
 21
111.4725652897636
 31
0.0
  0
LINE
  5
1C8
330
1F
100
AcDbEntity
  8
0
  6
Continuous
 62
     7
100
AcDbLine
 10
233.2773347032662
 20
113.2725652897636
 30
0.0
 11
233.2773347032662
 21
112.786922358585
 31
0.0
  0
LINE
  5
1C9
330
1F
100
AcDbEntity
  8
0
  6
Continuous
 62
     7
100
AcDbLine
 10
233.2773347032662
 20
110.086922358585
 30
0.0
 11
233.2773347032662
 21
110.5725652897636
 31
0.0
  0
LINE
  5
1CA
330
1F
100
AcDbEntity
  8
0
  6
Continuous
 62
     7
100
AcDbLine
 10
233.2773347032662
 20
113.686922358585
 30
0.0
 11
233.2773347032662
 21
113.2725652897636
 31
0.0
  0
LINE
  5
1CB
330
1F
100
AcDbEntity
  8
0
  6
Continuous
 62
     7
100
AcDbLine
 10
233.2773347032662
 20
113.686922358585
 30
0.0
 11
233.2773347032662
 21
114.1725652897636
 31
0.0
  0
LINE
  5
1CC
330
1F
100
AcDbEntity
  8
0
  6
Continuous
 62
     7
100
AcDbLine
 10
233.2773347032662
 20
115.0725652897636
 30
0.0
 11
233.2773347032662
 21
114.586922358585
 31
0.0
  0
LINE
  5
1CD
330
1F
100
AcDbEntity
  8
0
  6
Continuous
 62
     7
100
AcDbLine
 10
233.2773347032662
 20
112.786922358585
 30
0.0
 11
233.2773347032662
 21
112.3725652897636
 31
0.0
  0
LINE
  5
1CE
330
1F
100
AcDbEntity
  8
0
  6
Continuous
 62
     7
100
AcDbLine
 10
233.2773347032662
 20
111.886922358585
 30
0.0
 11
233.2773347032662
 21
112.3725652897636
 31
0.0
  0
LINE
  5
1CF
330
1F
100
AcDbEntity
  8
0
  6
Continuous
 62
     7
100
AcDbLine
 10
239.7773347032662
 20
108.4001808100756
 30
0.0
 11
233.2773347032662
 21
108.4001808100756
 31
0.0
  0
LINE
  5
1D0
330
1F
100
AcDbEntity
  8
0
  6
Continuous
 62
     7
100
AcDbLine
 10
239.7144133413269
 20
108.6430022756649
 30
0.0
 11
233.2773347032662
 21
108.6430022756649
 31
0.0
  0
LINE
  5
1D1
330
1F
100
AcDbEntity
  8
0
  6
Continuous
 62
     7
100
AcDbLine
 10
239.6424338890499
 20
110.086922358585
 30
0.0
 11
233.2773347032662
 21
110.086922358585
 31
0.0
  0
LINE
  5
1D2
330
1F
100
AcDbEntity
  8
0
  6
Continuous
 62
     7
100
AcDbLine
 10
239.6424338890499
 20
110.5725652897636
 30
0.0
 11
233.2773347032662
 21
110.5725652897636
 31
0.0
  0
LINE
  5
1D3
330
1F
100
AcDbEntity
  8
0
  6
Continuous
 62
     7
100
AcDbLine
 10
239.7773347032662
 20
108.4001808100756
 30
0.0
 11
239.7773347032662
 21
89.22974382417425
 31
0.0
  0
LINE
  5
1D4
330
1F
100
AcDbEntity
  8
0
  6
Continuous
 62
     7
100
AcDbLine
 10
239.4122355174824
 20
109.186922358585
 30
0.0
 11
233.2773347032662
 21
109.186922358585
 31
0.0
  0
LINE
  5
1D5
330
1F
100
AcDbEntity
  8
0
  6
Continuous
 62
     7
100
AcDbLine
 10
239.4122355174824
 20
109.6725652897636
 30
0.0
 11
233.2773347032662
 21
109.6725652897636
 31
0.0
  0
LINE
  5
1D6
330
1F
100
AcDbEntity
  8
0
  6
Continuous
 62
     7
100
AcDbLine
 10
239.4122355174824
 20
109.6725652897636
 30
0.0
 11
239.6424338890499
 21
110.086922358585
 31
0.0
  0
LINE
  5
1D7
330
1F
100
AcDbEntity
  8
0
  6
Continuous
 62
     7
100
AcDbLine
 10
239.4122355174824
 20
110.986922358585
 30
0.0
 11
233.2773347032662
 21
110.986922358585
 31
0.0
  0
LINE
  5
1D8
330
1F
100
AcDbEntity
  8
0
  6
Continuous
 62
     7
100
AcDbLine
 10
239.6424338890499
 20
112.3725652897636
 30
0.0
 11
233.2773347032662
 21
112.3725652897636
 31
0.0
  0
LINE
  5
1D9
330
1F
100
AcDbEntity
  8
0
  6
Continuous
 62
     7
100
AcDbLine
 10
239.4122355174824
 20
112.786922358585
 30
0.0
 11
233.2773347032662
 21
112.786922358585
 31
0.0
  0
LINE
  5
1DA
330
1F
100
AcDbEntity
  8
0
  6
Continuous
 62
     7
100
AcDbLine
 10
239.4122355174824
 20
113.2725652897636
 30
0.0
 11
233.2773347032662
 21
113.2725652897636
 31
0.0
  0
LINE
  5
1DB
330
1F
100
AcDbEntity
  8
0
  6
Continuous
 62
     7
100
AcDbLine
 10
239.4122355174824
 20
111.4725652897636
 30
0.0
 11
233.2773347032662
 21
111.4725652897636
 31
0.0
  0
LINE
  5
1DC
330
1F
100
AcDbEntity
  8
0
  6
Continuous
 62
     7
100
AcDbLine
 10
239.6424338890499
 20
111.886922358585
 30
0.0
 11
233.2773347032662
 21
111.886922358585
 31
0.0
  0
LINE
  5
1DD
330
1F
100
AcDbEntity
  8
0
  6
Continuous
 62
     7
100
AcDbLine
 10
239.6424338890499
 20
113.686922358585
 30
0.0
 11
233.2773347032662
 21
113.686922358585
 31
0.0
  0
LINE
  5
1DE
330
1F
100
AcDbEntity
  8
0
  6
Continuous
 62
     7
100
AcDbLine
 10
239.6424338890499
 20
114.1725652897636
 30
0.0
 11
233.2773347032662
 21
114.1725652897636
 31
0.0
  0
LINE
  5
1DF
330
1F
100
AcDbEntity
  8
0
  6
Continuous
 62
     7
100
AcDbLine
 10
239.4122355174824
 20
114.586922358585
 30
0.0
 11
233.2773347032662
 21
114.586922358585
 31
0.0
  0
LINE
  5
1E0
330
1F
100
AcDbEntity
  8
0
  6
Continuous
 62
     7
100
AcDbLine
 10
239.7773347032662
 20
115.7297438241743
 30
0.0
 11
233.2773347032662
 21
115.7297438241743
 31
0.0
  0
LINE
  5
1E1
330
1F
100
AcDbEntity
  8
0
  6
Continuous
 62
     7
100
AcDbLine
 10
239.4122355174824
 20
115.0725652897636
 30
0.0
 11
233.2773347032662
 21
115.0725652897636
 31
0.0
  0
LINE
  5
1E2
330
1F
100
AcDbEntity
  8
0
  6
Continuous
 62
     7
100
AcDbLine
 10
239.4122355174824
 20
115.0725652897636
 30
0.0
 11
239.7773347032662
 21
115.7297438241743
 31
0.0
  0
LINE
  5
1E3
330
1F
100
AcDbEntity
  8
0
  6
Continuous
 62
     7
100
AcDbLine
 10
239.4122355174824
 20
111.4725652897636
 30
0.0
 11
239.6424338890499
 21
111.886922358585
 31
0.0
  0
LINE
  5
1E4
330
1F
100
AcDbEntity
  8
0
  6
Continuous
 62
     7
100
AcDbLine
 10
239.4122355174824
 20
112.786922358585
 30
0.0
 11
239.6424338890499
 21
112.3725652897636
 31
0.0
  0
LINE
  5
1E5
330
1F
100
AcDbEntity
  8
0
  6
Continuous
 62
     7
100
AcDbLine
 10
239.4122355174824
 20
114.586922358585
 30
0.0
 11
239.6424338890499
 21
114.1725652897636
 31
0.0
  0
LINE
  5
1E6
330
1F
100
AcDbEntity
  8
0
  6
Continuous
 62
     7
100
AcDbLine
 10
239.4122355174824
 20
113.2725652897636
 30
0.0
 11
239.6424338890499
 21
113.686922358585
 31
0.0
  0
LINE
  5
1E7
330
1F
100
AcDbEntity
  8
0
  6
Continuous
 62
     7
100
AcDbLine
 10
239.4122355174824
 20
110.986922358585
 30
0.0
 11
239.6424338890499
 21
110.5725652897636
 31
0.0
  0
LINE
  5
1E8
330
1F
100
AcDbEntity
  8
0
  6
Continuous
 62
     7
100
AcDbLine
 10
239.4122355174824
 20
109.186922358585
 30
0.0
 11
239.7144133413269
 21
108.6430022756649
 31
0.0
  0
LINE
  5
1E9
330
1F
100
AcDbEntity
  8
0
  6
Continuous
 62
     7
100
AcDbLine
 10
233.2773347032662
 20
111.4725652897636
 30
0.0
 11
233.2773347032662
 21
110.986922358585
 31
0.0
  0
LINE
  5
1EA
330
1F
100
AcDbEntity
  8
0
  6
Continuous
 62
     7
100
AcDbLine
 10
233.2773347032662
 20
114.586922358585
 30
0.0
 11
233.2773347032662
 21
114.1725652897636
 31
0.0
  0
LINE
  5
1EB
330
1F
100
AcDbEntity
  8
0
  6
Continuous
 62
     7
100
AcDbLine
 10
233.2773347032662
 20
115.7297438241743
 30
0.0
 11
233.2773347032662
 21
115.0725652897636
 31
0.0
  0
LINE
  5
1EC
330
1F
100
AcDbEntity
  8
0
  6
Continuous
 62
     7
100
AcDbLine
 10
223.5773347032661
 20
109.186922358585
 30
0.0
 11
216.8773347032661
 21
109.186922358585
 31
0.0
  0
LINE
  5
1ED
330
1F
100
AcDbEntity
  8
0
  6
Continuous
 62
     7
100
AcDbLine
 10
233.2773347032662
 20
109.186922358585
 30
0.0
 11
226.5773347032661
 21
109.186922358585
 31
0.0
  0
LINE
  5
1EE
330
1F
100
AcDbEntity
  8
0
  6
Continuous
 62
     7
100
AcDbLine
 10
233.2773347032662
 20
112.3725652897636
 30
0.0
 11
226.5773347032661
 21
112.3725652897636
 31
0.0
  0
LINE
  5
1EF
330
1F
100
AcDbEntity
  8
0
  6
Continuous
 62
     7
100
AcDbLine
 10
233.2773347032662
 20
112.786922358585
 30
0.0
 11
226.5773347032661
 21
112.786922358585
 31
0.0
  0
LINE
  5
1F0
330
1F
100
AcDbEntity
  8
0
  6
Continuous
 62
     7
100
AcDbLine
 10
223.5773347032661
 20
108.6430022756649
 30
0.0
 11
223.5773347032661
 21
108.4001808100756
 31
0.0
  0
LINE
  5
1F1
330
1F
100
AcDbEntity
  8
0
  6
Continuous
 62
     7
100
AcDbLine
 10
223.5773347032661
 20
109.186922358585
 30
0.0
 11
223.5773347032661
 21
108.6430022756649
 31
0.0
  0
LINE
  5
1F2
330
1F
100
AcDbEntity
  8
0
  6
Continuous
 62
     7
100
AcDbLine
 10
233.2773347032662
 20
110.986922358585
 30
0.0
 11
226.5773347032661
 21
110.986922358585
 31
0.0
  0
LINE
  5
1F3
330
1F
100
AcDbEntity
  8
0
  6
Continuous
 62
     7
100
AcDbLine
 10
233.2773347032662
 20
109.6725652897636
 30
0.0
 11
226.5773347032661
 21
109.6725652897636
 31
0.0
  0
LINE
  5
1F4
330
1F
100
AcDbEntity
  8
0
  6
Continuous
 62
     7
100
AcDbLine
 10
233.2773347032662
 20
110.5725652897636
 30
0.0
 11
226.5773347032661
 21
110.5725652897636
 31
0.0
  0
LINE
  5
1F5
330
1F
100
AcDbEntity
  8
0
  6
Continuous
 62
     7
100
AcDbLine
 10
233.2773347032662
 20
110.086922358585
 30
0.0
 11
226.5773347032661
 21
110.086922358585
 31
0.0
  0
LINE
  5
1F6
330
1F
100
AcDbEntity
  8
0
  6
Continuous
 62
     7
100
AcDbLine
 10
223.5773347032661
 20
110.086922358585
 30
0.0
 11
223.5773347032661
 21
109.6725652897636
 31
0.0
  0
LINE
  5
1F7
330
1F
100
AcDbEntity
  8
0
  6
Continuous
 62
     7
100
AcDbLine
 10
223.5773347032661
 20
110.5725652897636
 30
0.0
 11
223.5773347032661
 21
110.086922358585
 31
0.0
  0
LINE
  5
1F8
330
1F
100
AcDbEntity
  8
0
  6
Continuous
 62
     7
100
AcDbLine
 10
233.2773347032662
 20
111.4725652897636
 30
0.0
 11
226.5773347032661
 21
111.4725652897636
 31
0.0
  0
LINE
  5
1F9
330
1F
100
AcDbEntity
  8
0
  6
Continuous
 62
     7
100
AcDbLine
 10
233.2773347032662
 20
111.886922358585
 30
0.0
 11
226.5773347032661
 21
111.886922358585
 31
0.0
  0
LINE
  5
1FA
330
1F
100
AcDbEntity
  8
0
  6
Continuous
 62
     7
100
AcDbLine
 10
226.5773347032661
 20
112.3725652897636
 30
0.0
 11
226.5773347032661
 21
112.786922358585
 31
0.0
  0
LINE
  5
1FB
330
1F
100
AcDbEntity
  8
0
  6
Continuous
 62
     7
100
AcDbLine
 10
226.5773347032661
 20
111.886922358585
 30
0.0
 11
226.5773347032661
 21
112.3725652897636
 31
0.0
  0
LINE
  5
1FC
330
1F
100
AcDbEntity
  8
0
  6
Continuous
 62
     7
100
AcDbLine
 10
226.5773347032661
 20
111.4725652897636
 30
0.0
 11
226.5773347032661
 21
111.886922358585
 31
0.0
  0
LINE
  5
1FD
330
1F
100
AcDbEntity
  8
0
  6
Continuous
 62
     7
100
AcDbLine
 10
226.5773347032661
 20
110.5725652897636
 30
0.0
 11
226.5773347032661
 21
110.986922358585
 31
0.0
  0
LINE
  5
1FE
330
1F
100
AcDbEntity
  8
0
  6
Continuous
 62
     7
100
AcDbLine
 10
226.5773347032661
 20
110.086922358585
 30
0.0
 11
226.5773347032661
 21
110.5725652897636
 31
0.0
  0
LINE
  5
1FF
330
1F
100
AcDbEntity
  8
0
  6
Continuous
 62
     7
100
AcDbLine
 10
226.5773347032661
 20
109.6725652897636
 30
0.0
 11
226.5773347032661
 21
110.086922358585
 31
0.0
  0
LINE
  5
200
330
1F
100
AcDbEntity
  8
0
  6
Continuous
 62
     7
100
AcDbLine
 10
226.5773347032661
 20
109.186922358585
 30
0.0
 11
226.5773347032661
 21
109.6725652897636
 31
0.0
  0
LINE
  5
201
330
1F
100
AcDbEntity
  8
0
  6
Continuous
 62
     7
100
AcDbLine
 10
226.5773347032661
 20
110.986922358585
 30
0.0
 11
226.5773347032661
 21
111.4725652897636
 31
0.0
  0
LINE
  5
202
330
1F
100
AcDbEntity
  8
0
  6
Continuous
 62
     7
100
AcDbLine
 10
226.5773347032661
 20
108.6430022756649
 30
0.0
 11
226.5773347032661
 21
109.186922358585
 31
0.0
  0
LINE
  5
203
330
1F
100
AcDbEntity
  8
0
  6
Continuous
 62
     7
100
AcDbLine
 10
226.5773347032661
 20
108.4001808100756
 30
0.0
 11
226.5773347032661
 21
108.6430022756649
 31
0.0
  0
LINE
  5
204
330
1F
100
AcDbEntity
  8
0
  6
Continuous
 62
     7
100
AcDbLine
 10
216.8773347032661
 20
108.4001808100756
 30
0.0
 11
223.5773347032661
 21
108.4001808100756
 31
0.0
  0
LINE
  5
205
330
1F
100
AcDbEntity
  8
0
  6
Continuous
 62
     7
100
AcDbLine
 10
226.5773347032661
 20
108.4001808100756
 30
0.0
 11
233.2773347032662
 21
108.4001808100756
 31
0.0
  0
LINE
  5
206
330
1F
100
AcDbEntity
  8
0
  6
Continuous
 62
     7
100
AcDbLine
 10
233.2773347032662
 20
86.22974382417425
 30
0.0
 11
216.8773347032661
 21
86.22974382417425
 31
0.0
  0
LINE
  5
207
330
1F
100
AcDbEntity
  8
0
  6
Continuous
 62
     7
100
AcDbLine
 10
236.0773347032661
 20
68.72974382417425
 30
0.0
 11
214.5684099247687
 21
68.72974382417425
 31
0.0
  0
LINE
  5
208
330
1F
100
AcDbEntity
  8
0
  6
Continuous
 62
     7
100
AcDbLine
 10
223.5773347032661
 20
108.6430022756649
 30
0.0
 11
216.8773347032661
 21
108.6430022756649
 31
0.0
  0
LINE
  5
209
330
1F
100
AcDbEntity
  8
0
  6
Continuous
 62
     7
100
AcDbLine
 10
233.2773347032662
 20
108.6430022756649
 30
0.0
 11
226.5773347032661
 21
108.6430022756649
 31
0.0
  0
LINE
  5
20A
330
1F
100
AcDbEntity
  8
0
  6
Continuous
 62
     7
100
AcDbLine
 10
223.5773347032661
 20
109.6725652897636
 30
0.0
 11
216.8773347032661
 21
109.6725652897636
 31
0.0
  0
LINE
  5
20B
330
1F
100
AcDbEntity
  8
0
  6
Continuous
 62
     7
100
AcDbLine
 10
223.5773347032661
 20
110.086922358585
 30
0.0
 11
216.8773347032661
 21
110.086922358585
 31
0.0
  0
LINE
  5
20C
330
1F
100
AcDbEntity
  8
0
  6
Continuous
 62
     7
100
AcDbLine
 10
223.5773347032661
 20
109.6725652897636
 30
0.0
 11
223.5773347032661
 21
109.186922358585
 31
0.0
  0
LINE
  5
20D
330
1F
100
AcDbEntity
  8
0
  6
Continuous
 62
     7
100
AcDbLine
 10
210.3773347032661
 20
108.4001808100756
 30
0.0
 11
210.3773347032661
 21
89.22974382417425
 31
0.0
  0
LINE
  5
20E
330
1F
100
AcDbEntity
  8
0
  6
Continuous
 62
     7
100
AcDbLine
 10
216.8773347032661
 20
110.5725652897636
 30
0.0
 11
210.5122355174823
 21
110.5725652897636
 31
0.0
  0
LINE
  5
20F
330
1F
100
AcDbEntity
  8
0
  6
Continuous
 62
     7
100
AcDbLine
 10
216.8773347032661
 20
112.3725652897636
 30
0.0
 11
210.5122355174823
 21
112.3725652897636
 31
0.0
  0
LINE
  5
210
330
1F
100
AcDbEntity
  8
0
  6
Continuous
 62
     7
100
AcDbLine
 10
216.8773347032661
 20
109.6725652897636
 30
0.0
 11
210.7424338890498
 21
109.6725652897636
 31
0.0
  0
LINE
  5
211
330
1F
100
AcDbEntity
  8
0
  6
Continuous
 62
     7
100
AcDbLine
 10
216.8773347032661
 20
110.086922358585
 30
0.0
 11
210.5122355174823
 21
110.086922358585
 31
0.0
  0
LINE
  5
212
330
1F
100
AcDbEntity
  8
0
  6
Continuous
 62
     7
100
AcDbLine
 10
216.8773347032661
 20
115.7297438241743
 30
0.0
 11
210.3773347032661
 21
115.7297438241743
 31
0.0
  0
LINE
  5
213
330
1F
100
AcDbEntity
  8
0
  6
Continuous
 62
     7
100
AcDbLine
 10
210.7424338890498
 20
109.6725652897636
 30
0.0
 11
210.5122355174823
 21
110.086922358585
 31
0.0
  0
LINE
  5
214
330
1F
100
AcDbEntity
  8
0
  6
Continuous
 62
     7
100
AcDbLine
 10
210.7424338890498
 20
112.786922358585
 30
0.0
 11
210.5122355174823
 21
112.3725652897636
 31
0.0
  0
LINE
  5
215
330
1F
100
AcDbEntity
  8
0
  6
Continuous
 62
     7
100
AcDbLine
 10
216.8773347032661
 20
108.4001808100756
 30
0.0
 11
210.3773347032661
 21
108.4001808100756
 31
0.0
  0
LINE
  5
216
330
1F
100
AcDbEntity
  8
0
  6
Continuous
 62
     7
100
AcDbLine
 10
216.8773347032661
 20
108.6430022756649
 30
0.0
 11
210.4402560652054
 21
108.6430022756649
 31
0.0
  0
LINE
  5
217
330
1F
100
AcDbEntity
  8
0
  6
Continuous
 62
     7
100
AcDbLine
 10
216.8773347032661
 20
109.186922358585
 30
0.0
 11
210.7424338890498
 21
109.186922358585
 31
0.0
  0
LINE
  5
218
330
1F
100
AcDbEntity
  8
0
  6
Continuous
 62
     7
100
AcDbLine
 10
210.7424338890498
 20
114.586922358585
 30
0.0
 11
210.5122355174823
 21
114.1725652897636
 31
0.0
  0
LINE
  5
219
330
1F
100
AcDbEntity
  8
0
  6
Continuous
 62
     7
100
AcDbLine
 10
210.7424338890498
 20
113.2725652897636
 30
0.0
 11
210.5122355174823
 21
113.686922358585
 31
0.0
  0
LINE
  5
21A
330
1F
100
AcDbEntity
  8
0
  6
Continuous
 62
     7
100
AcDbLine
 10
210.7424338890498
 20
110.986922358585
 30
0.0
 11
210.5122355174823
 21
110.5725652897636
 31
0.0
  0
LINE
  5
21B
330
1F
100
AcDbEntity
  8
0
  6
Continuous
 62
     7
100
AcDbLine
 10
210.7424338890498
 20
109.186922358585
 30
0.0
 11
210.4402560652054
 21
108.6430022756649
 31
0.0
  0
LINE
  5
21C
330
1F
100
AcDbEntity
  8
0
  6
Continuous
 62
     7
100
AcDbLine
 10
210.7424338890498
 20
115.0725652897636
 30
0.0
 11
210.3773347032661
 21
115.7297438241743
 31
0.0
  0
LINE
  5
21D
330
1F
100
AcDbEntity
  8
0
  6
Continuous
 62
     7
100
AcDbLine
 10
226.5773347032661
 20
112.786922358585
 30
0.0
 11
226.5773347032661
 21
112.9998126558684
 31
0.0
  0
LINE
  5
21E
330
1F
100
AcDbEntity
  8
0
  6
Continuous
 62
     7
100
AcDbLine
 10
216.8773347032661
 20
127.7297438241743
 30
0.0
 11
210.3773347032661
 21
127.7297438241743
 31
0.0
  0
LINE
  5
21F
330
1F
100
AcDbEntity
  8
0
  6
Continuous
 62
     7
100
AcDbLine
 10
223.5773347032661
 20
110.986922358585
 30
0.0
 11
223.5773347032661
 21
110.5725652897636
 31
0.0
  0
LINE
  5
220
330
1F
100
AcDbEntity
  8
0
  6
Continuous
 62
     7
100
AcDbLine
 10
216.8773347032661
 20
110.986922358585
 30
0.0
 11
210.7424338890498
 21
110.986922358585
 31
0.0
  0
LINE
  5
221
330
1F
100
AcDbEntity
  8
0
  6
Continuous
 62
     7
100
AcDbLine
 10
223.5773347032661
 20
110.5725652897636
 30
0.0
 11
216.8773347032661
 21
110.5725652897636
 31
0.0
  0
LINE
  5
222
330
1F
100
AcDbEntity
  8
0
  6
Continuous
 62
     7
100
AcDbLine
 10
219.5591831930039
 20
115.7297438241743
 30
0.0
 11
216.8773347032661
 21
115.7297438241743
 31
0.0
  0
LINE
  5
223
330
1F
100
AcDbEntity
  8
0
  6
Continuous
 62
     7
100
AcDbLine
 10
223.5773347032661
 20
111.886922358585
 30
0.0
 11
223.5773347032661
 21
111.4725652897636
 31
0.0
  0
LINE
  5
224
330
1F
100
AcDbEntity
  8
0
  6
Continuous
 62
     7
100
AcDbLine
 10
223.5773347032661
 20
112.3725652897636
 30
0.0
 11
223.5773347032661
 21
111.886922358585
 31
0.0
  0
LINE
  5
225
330
1F
100
AcDbEntity
  8
0
  6
Continuous
 62
     7
100
AcDbLine
 10
223.5773347032661
 20
112.786922358585
 30
0.0
 11
223.5773347032661
 21
112.3725652897636
 31
0.0
  0
LINE
  5
226
330
1F
100
AcDbEntity
  8
0
  6
Continuous
 62
     7
100
AcDbLine
 10
223.5773347032661
 20
112.9998128186268
 30
0.0
 11
223.5773347032661
 21
112.786922358585
 31
0.0
  0
LINE
  5
227
330
1F
100
AcDbEntity
  8
0
  6
Continuous
 62
     7
100
AcDbLine
 10
223.5773347032661
 20
111.4725652897636
 30
0.0
 11
223.5773347032661
 21
110.986922358585
 31
0.0
  0
LINE
  5
228
330
1F
100
AcDbEntity
  8
0
  6
Continuous
 62
     7
100
AcDbLine
 10
216.8773347032661
 20
111.4725652897636
 30
0.0
 11
210.7424338890498
 21
111.4725652897636
 31
0.0
  0
LINE
  5
229
330
1F
100
AcDbEntity
  8
0
  6
Continuous
 62
     7
100
AcDbLine
 10
223.5773347032661
 20
111.4725652897636
 30
0.0
 11
216.8773347032661
 21
111.4725652897636
 31
0.0
  0
LINE
  5
22A
330
1F
100
AcDbEntity
  8
0
  6
Continuous
 62
     7
100
AcDbLine
 10
223.5773347032661
 20
110.986922358585
 30
0.0
 11
216.8773347032661
 21
110.986922358585
 31
0.0
  0
LINE
  5
22B
330
1F
100
AcDbEntity
  8
0
  6
Continuous
 62
     7
100
AcDbLine
 10
216.8773347032661
 20
112.786922358585
 30
0.0
 11
210.7424338890498
 21
112.786922358585
 31
0.0
  0
LINE
  5
22C
330
1F
100
AcDbEntity
  8
0
  6
Continuous
 62
     7
100
AcDbLine
 10
222.6819818918138
 20
113.2725652897636
 30
0.0
 11
216.8773347032661
 21
113.2725652897636
 31
0.0
  0
LINE
  5
22D
330
1F
100
AcDbEntity
  8
0
  6
Continuous
 62
     7
100
AcDbLine
 10
223.5773347032661
 20
112.3725652897636
 30
0.0
 11
216.8773347032661
 21
112.3725652897636
 31
0.0
  0
LINE
  5
22E
330
1F
100
AcDbEntity
  8
0
  6
Continuous
 62
     7
100
AcDbLine
 10
223.5773347032661
 20
112.786922358585
 30
0.0
 11
216.8773347032661
 21
112.786922358585
 31
0.0
  0
LINE
  5
22F
330
1F
100
AcDbEntity
  8
0
  6
Continuous
 62
     7
100
AcDbLine
 10
216.8773347032661
 20
111.886922358585
 30
0.0
 11
210.5122355174823
 21
111.886922358585
 31
0.0
  0
LINE
  5
230
330
1F
100
AcDbEntity
  8
0
  6
Continuous
 62
     7
100
AcDbLine
 10
223.5773347032661
 20
111.886922358585
 30
0.0
 11
216.8773347032661
 21
111.886922358585
 31
0.0
  0
LINE
  5
231
330
1F
100
AcDbEntity
  8
0
  6
Continuous
 62
     7
100
AcDbLine
 10
221.798396613271
 20
113.686922358585
 30
0.0
 11
216.8773347032661
 21
113.686922358585
 31
0.0
  0
LINE
  5
232
330
1F
100
AcDbEntity
  8
0
  6
Continuous
 62
     7
100
AcDbLine
 10
221.0535758512114
 20
114.1725652897636
 30
0.0
 11
216.8773347032661
 21
114.1725652897636
 31
0.0
  0
LINE
  5
233
330
1F
100
AcDbEntity
  8
0
  6
Continuous
 62
     7
100
AcDbLine
 10
220.0749796610826
 20
115.0725652897636
 30
0.0
 11
216.8773347032661
 21
115.0725652897636
 31
0.0
  0
LINE
  5
234
330
1F
100
AcDbEntity
  8
0
  6
Continuous
 62
     7
100
AcDbLine
 10
220.5542259543476
 20
114.586922358585
 30
0.0
 11
216.8773347032661
 21
114.586922358585
 31
0.0
  0
LINE
  5
235
330
1F
100
AcDbEntity
  8
0
  6
Continuous
 62
     7
100
AcDbLine
 10
216.8773347032661
 20
113.2725652897636
 30
0.0
 11
210.7424338890498
 21
113.2725652897636
 31
0.0
  0
LINE
  5
236
330
1F
100
AcDbEntity
  8
0
  6
Continuous
 62
     7
100
AcDbLine
 10
216.8773347032661
 20
115.0725652897636
 30
0.0
 11
210.7424338890498
 21
115.0725652897636
 31
0.0
  0
LINE
  5
237
330
1F
100
AcDbEntity
  8
0
  6
Continuous
 62
     7
100
AcDbLine
 10
216.8773347032661
 20
114.586922358585
 30
0.0
 11
210.7424338890498
 21
114.586922358585
 31
0.0
  0
LINE
  5
238
330
1F
100
AcDbEntity
  8
0
  6
Continuous
 62
     7
100
AcDbLine
 10
216.8773347032661
 20
114.1725652897636
 30
0.0
 11
210.5122355174823
 21
114.1725652897636
 31
0.0
  0
LINE
  5
239
330
1F
100
AcDbEntity
  8
0
  6
Continuous
 62
     7
100
AcDbLine
 10
216.8773347032661
 20
113.686922358585
 30
0.0
 11
210.5122355174823
 21
113.686922358585
 31
0.0
  0
LINE
  5
23A
330
1F
100
AcDbEntity
  8
0
  6
Continuous
 62
     7
100
AcDbLine
 10
210.7424338890498
 20
111.4725652897636
 30
0.0
 11
210.5122355174823
 21
111.886922358585
 31
0.0
  0
LINE
  5
23B
330
1F
100
AcDbEntity
  8
0
  6
Continuous
 62
     7
100
AcDbLine
 10
216.8773347032661
 20
127.7297438241743
 30
0.0
 11
224.0466879359613
 21
127.7297438241744
 31
0.0
  0
LINE
  5
23C
330
1F
100
AcDbEntity
  8
0
  6
Continuous
 62
     7
100
AcDbLine
 10
233.2773347032662
 20
114.586922358585
 30
0.0
 11
229.6004441607187
 21
114.586922358585
 31
0.0
  0
LINE
  5
23D
330
1F
100
AcDbEntity
  8
0
  6
Continuous
 62
     7
100
AcDbLine
 10
233.2773347032662
 20
115.7297438241743
 30
0.0
 11
230.826404503226
 21
115.7297438241743
 31
0.0
  0
LINE
  5
23E
330
1F
100
AcDbEntity
  8
0
  6
Continuous
 62
     7
100
AcDbLine
 10
233.2773347032662
 20
115.0725652897636
 30
0.0
 11
230.1216668060242
 21
115.0725652897636
 31
0.0
  0
LINE
  5
23F
330
1F
100
AcDbEntity
  8
0
  6
Continuous
 62
     7
100
AcDbLine
 10
233.2773347032662
 20
114.1725652897636
 30
0.0
 11
229.1010942638552
 21
114.1725652897636
 31
0.0
  0
LINE
  5
240
330
1F
100
AcDbEntity
  8
0
  6
Continuous
 62
     7
100
AcDbLine
 10
233.2773347032662
 20
113.686922358585
 30
0.0
 11
228.3562735017953
 21
113.686922358585
 31
0.0
  0
LINE
  5
241
330
1F
100
AcDbEntity
  8
0
  6
Continuous
 62
     7
100
AcDbLine
 10
233.2773347032662
 20
113.2725652897636
 30
0.0
 11
227.4726882232525
 21
113.2725652897636
 31
0.0
  0
LINE
  5
242
330
1F
100
AcDbEntity
  8
0
  6
Continuous
 62
     7
100
AcDbLine
 10
237.0773347032661
 20
85.44688776026845
 30
0.0
 11
237.0773347032661
 21
69.72974382417425
 31
0.0
  0
LINE
  5
243
330
1F
100
AcDbEntity
  8
0
  6
Continuous
 62
     7
100
AcDbLine
 10
236.7773347032662
 20
86.22974382417425
 30
0.0
 11
233.2773347032662
 21
86.22974382417425
 31
0.0
  0
LINE
  5
244
330
1F
100
AcDbEntity
  8
0
  6
Continuous
 62
     7
100
AcDbLine
 10
233.2773347032662
 20
109.186922358585
 30
0.0
 11
233.2773347032662
 21
108.6430022756649
 31
0.0
  0
LINE
  5
245
330
1F
100
AcDbEntity
  8
0
  6
Continuous
 62
     7
100
AcDbLine
 10
233.2773347032662
 20
110.086922358585
 30
0.0
 11
233.2773347032662
 21
109.6725652897636
 31
0.0
  0
LINE
  5
246
330
1F
100
AcDbEntity
  8
0
  6
Continuous
 62
     7
100
AcDbLine
 10
233.2773347032662
 20
110.986922358585
 30
0.0
 11
233.2773347032662
 21
110.5725652897636
 31
0.0
  0
LINE
  5
247
330
1F
100
AcDbEntity
  8
0
  6
Continuous
 62
     7
100
AcDbLine
 10
233.2773347032662
 20
118.015273210782
 30
0.0
 11
233.2773347032662
 21
115.7297438241743
 31
0.0
  0
LINE
  5
248
330
1F
100
AcDbEntity
  8
0
  6
Continuous
 62
     7
100
AcDbLine
 10
216.8773347032661
 20
86.22974382417425
 30
0.0
 11
213.3773347032661
 21
86.22974382417425
 31
0.0
  0
LINE
  5
249
330
1F
100
AcDbEntity
  8
0
  6
Continuous
 62
     7
100
AcDbLine
 10
210.3773347032661
 20
127.7297438241743
 30
0.0
 11
210.3773347032661
 21
115.7297438241743
 31
0.0
  0
LINE
  5
24A
330
1F
100
AcDbEntity
  8
0
  6
Continuous
 62
     7
100
AcDbLine
 10
249.0067965482544
 20
144.9585756957376
 30
0.0
 11
248.9792328126727
 21
144.8624495261441
 31
0.0
  0
LINE
  5
24B
330
1F
100
AcDbEntity
  8
0
  6
Continuous
 62
     7
100
AcDbLine
 10
248.0515467642558
 20
145.1616203053605
 30
0.0
 11
248.0376294541597
 21
145.0625934984864
 31
0.0
  0
LINE
  5
24C
330
1F
100
AcDbEntity
  8
0
  6
Continuous
 62
     7
100
AcDbLine
 10
247.0993205051536
 20
145.2297438241715
 30
0.0
 11
240.7773350575273
 21
145.2297438241723
 31
0.0
  0
LINE
  5
24D
330
1F
100
AcDbEntity
  8
0
  6
Continuous
 62
     7
100
AcDbLine
 10
247.4602791849702
 20
145.2297438241723
 30
0.0
 11
247.0993205051536
 21
145.2297438241715
 31
0.0
  0
LINE
  5
24E
330
1F
100
AcDbEntity
  8
0
  6
Continuous
 62
     7
100
AcDbLine
 10
249.8838178947582
 20
144.5332074819033
 30
0.0
 11
249.9244915590659
 21
144.6245620276675
 31
0.0
  0
LINE
  5
24F
330
1F
100
AcDbEntity
  8
0
  6
Continuous
 62
     7
100
AcDbLine
 10
250.786769907169
 20
144.1660804972632
 30
0.0
 11
250.7337779807444
 21
144.0812756876485
 31
0.0
  0
LINE
  5
250
330
1F
100
AcDbEntity
  8
0
  6
Continuous
 62
     7
100
AcDbLine
 10
251.5768483253409
 20
143.5920549260018
 30
0.0
 11
251.5125695643725
 21
143.5154504816899
 31
0.0
  0
LINE
  5
251
330
1F
100
AcDbEntity
  8
0
  6
Continuous
 62
     7
100
AcDbLine
 10
252.2793488358769
 20
142.913658068681
 30
0.0
 11
252.2050343533292
 21
142.8467450080452
 31
0.0
  0
LINE
  5
252
330
1F
100
AcDbEntity
  8
0
  6
Continuous
 62
     7
100
AcDbLine
 10
252.7976943081648
 20
142.0881748581171
 30
0.0
 11
252.8805980654202
 21
142.1440941484642
 31
0.0
  0
LINE
  5
253
330
1F
100
AcDbEntity
  8
0
  6
Continuous
 62
     7
100
AcDbLine
 10
253.368893381629
 20
141.2983418516924
 30
0.0
 11
253.2790139769991
 21
141.2545047370136
 31
0.0
  0
LINE
  5
254
330
1F
100
AcDbEntity
  8
0
  6
Continuous
 62
     7
100
AcDbLine
 10
253.7347306716009
 20
140.3928627847935
 30
0.0
 11
253.6396250199715
 21
140.361961085356
 31
0.0
  0
LINE
  5
255
330
1F
100
AcDbEntity
  8
0
  6
Continuous
 62
     7
100
AcDbLine
 10
253.8725085533189
 20
139.4279162500706
 30
0.0
 11
253.9709893286201
 21
139.4452810678373
 31
0.0
  0
LINE
  5
256
330
1F
100
AcDbEntity
  8
0
  6
Continuous
 62
     7
100
AcDbLine
 10
254.0730708466683
 20
138.4740403010863
 30
0.0
 11
253.9731317639664
 21
138.4705503514161
 31
0.0
  0
LINE
  5
257
330
1F
100
AcDbEntity
  8
0
  6
Continuous
 62
     7
100
AcDbLine
 10
253.9395361355756
 20
137.508497427622
 30
0.0
 11
254.0389883251124
 21
137.4980445812952
 31
0.0
  0
LINE
  5
258
330
1F
100
AcDbEntity
  8
0
  6
Continuous
 62
     7
100
AcDbLine
 10
247.0773350592337
 20
131.1910528309344
 30
0.0
 11
247.0773350575299
 21
130.8839817298382
 31
0.0
  0
LINE
  5
259
330
1F
100
AcDbEntity
  8
0
  6
Continuous
 62
     7
100
AcDbLine
 10
247.0773350575334
 20
131.3297438241696
 30
0.0
 11
247.0773350592337
 21
131.1910528309344
 31
0.0
  0
LINE
  5
25A
330
1F
100
AcDbEntity
  8
0
  6
Continuous
 62
     7
100
AcDbLine
 10
249.4372740464809
 20
131.7458647407465
 30
0.0
 11
249.4714760608135
 21
131.6518954786678
 31
0.0
  0
LINE
  5
25B
330
1F
100
AcDbEntity
  8
0
  6
Continuous
 62
     7
100
AcDbLine
 10
248.5327168932581
 20
131.3827106190327
 30
0.0
 11
248.5119257241763
 21
131.480525379106
 31
0.0
  0
LINE
  5
25C
330
1F
100
AcDbEntity
  8
0
  6
Continuous
 62
     7
100
AcDbLine
 10
250.363635997035
 20
132.0491106741567
 30
0.0
 11
250.3166888407565
 21
132.1374054334426
 31
0.0
  0
LINE
  5
25D
330
1F
100
AcDbEntity
  8
0
  6
Continuous
 62
     7
100
AcDbLine
 10
247.5586547263683
 20
131.3465518773767
 30
0.0
 11
247.5656303737426
 21
131.2467954723507
 31
0.0
  0
LINE
  5
25E
330
1F
100
AcDbEntity
  8
0
  6
Continuous
 62
     7
100
AcDbLine
 10
251.9399436507469
 20
133.1943652217984
 30
0.0
 11
251.8704778137011
 21
133.2662992018322
 31
0.0
  0
LINE
  5
25F
330
1F
100
AcDbEntity
  8
0
  6
Continuous
 62
     7
100
AcDbLine
 10
251.133053298352
 20
132.6475265629819
 30
0.0
 11
251.1918318235811
 21
132.5666248635444
 31
0.0
  0
LINE
  5
260
330
1F
100
AcDbEntity
  8
0
  6
Continuous
 62
     7
100
AcDbLine
 10
252.5146092574204
 20
133.9816796444219
 30
0.0
 11
252.5934103327812
 21
133.9201134968893
 31
0.0
  0
LINE
  5
261
330
1F
100
AcDbEntity
  8
0
  6
Continuous
 62
     7
100
AcDbLine
 10
253.1395128840252
 20
134.7297438241689
 30
0.0
 11
253.0529103436468
 21
134.7797438241689
 31
0.0
  0
LINE
  5
262
330
1F
100
AcDbEntity
  8
0
  6
Continuous
 62
     7
100
AcDbLine
 10
253.4749036540451
 20
135.644958329599
 30
0.0
 11
253.5676220395018
 21
135.6074976702574
 31
0.0
  0
LINE
  5
263
330
1F
100
AcDbEntity
  8
0
  6
Continuous
 62
     7
100
AcDbLine
 10
253.8694051414663
 20
136.5362905549711
 30
0.0
 11
253.7723755688388
 21
136.5604827445311
 31
0.0
  0
LINE
  5
264
330
1F
100
AcDbEntity
  8
0
  6
Continuous
 62
     7
100
AcDbLine
 10
239.7773347032662
 20
124.0766212706768
 30
0.0
 11
241.1183342375563
 21
125.327123566906
 31
0.0
  0
LINE
  5
265
330
1F
100
AcDbEntity
  8
0
  6
Continuous
 62
     7
100
AcDbLine
 10
241.1183342375563
 20
125.327123566906
 30
0.0
 11
247.0773350575299
 21
130.8839817298382
 31
0.0
  0
LINE
  5
266
330
1F
100
AcDbEntity
  8
0
  6
Continuous
 62
     7
100
AcDbLine
 10
223.2863431721467
 20
137.3297438241743
 30
0.0
 11
221.8851041637641
 21
137.3297438241743
 31
0.0
  0
LINE
  5
267
330
1F
100
AcDbEntity
  8
0
  6
Continuous
 62
     7
100
AcDbLine
 10
223.7863431721467
 20
138.0297438241717
 30
0.0
 11
223.7863431721467
 21
137.8297438241743
 31
0.0
  0
LINE
  5
268
330
1F
100
AcDbEntity
  8
0
  6
Continuous
 62
     7
100
AcDbLine
 10
225.0773350575354
 20
137.3297438241743
 30
0.0
 11
223.2863431721467
 21
137.3297438241743
 31
0.0
  0
LINE
  5
269
330
1F
100
AcDbEntity
  8
0
  6
Continuous
 62
     7
100
AcDbLine
 10
239.7773347032662
 20
124.0766212706768
 30
0.0
 11
229.6467240699523
 21
114.629674023325
 31
0.0
  0
LINE
  5
26A
330
1F
100
AcDbEntity
  8
0
  6
Continuous
 62
     7
100
AcDbLine
 10
229.8307590093522
 20
123.962100715839
 30
0.0
 11
234.4873268578455
 21
128.3044204841817
 31
0.0
  0
LINE
  5
26B
330
1F
100
AcDbEntity
  8
0
  6
Continuous
 62
     7
100
AcDbLine
 10
220.5079460451147
 20
124.4298136250133
 30
0.0
 11
224.0466879359613
 21
127.7297438241744
 31
0.0
  0
LINE
  5
26C
330
1F
100
AcDbEntity
  8
0
  6
Continuous
 62
     7
100
AcDbLine
 10
237.4757047105849
 20
125.590372902439
 30
0.0
 11
230.1293841915601
 21
118.7398181908472
 31
0.0
  0
LINE
  5
26D
330
1F
100
AcDbEntity
  8
0
  6
Continuous
 62
     7
100
AcDbLine
 10
226.5773350575354
 20
135.8297438241743
 30
0.0
 11
226.5773350575354
 21
130.0896104427325
 31
0.0
  0
LINE
  5
26E
330
1F
100
AcDbEntity
  8
0
  6
Continuous
 62
     7
100
AcDbLine
 10
226.5773350575354
 20
137.7297438241689
 30
0.0
 11
226.5773350575354
 21
135.8297438241743
 31
0.0
  0
LINE
  5
26F
330
1F
100
AcDbEntity
  8
0
  6
Continuous
 62
     7
100
AcDbLine
 10
224.0466879359613
 20
127.7297438241744
 30
0.0
 11
226.5773350575354
 21
130.0896104427325
 31
0.0
  0
LINE
  5
270
330
1F
100
AcDbEntity
  8
0
  6
Continuous
 62
     7
100
AcDbLine
 10
240.7773350575273
 20
145.2297438241723
 30
0.0
 11
222.6190774880412
 21
145.2297438241723
 31
0.0
  0
LINE
  5
271
330
1F
100
AcDbEntity
  8
0
  6
Continuous
 62
     7
100
AcDbLine
 10
231.5474707223142
 20
139.8770719660301
 30
0.0
 11
230.4844537939059
 21
140.0075940328171
 31
0.0
  0
LINE
  5
272
330
1F
100
AcDbEntity
  8
0
  6
Continuous
 62
     7
100
AcDbLine
 10
230.4844537939059
 20
140.0075940328171
 30
0.0
 11
230.6657344422221
 21
141.4840064333834
 31
0.0
  0
LINE
  5
273
330
1F
100
AcDbEntity
  8
0
  6
Continuous
 62
     7
100
AcDbLine
 10
230.6657344422221
 20
141.4840064333834
 30
0.0
 11
230.3873252466856
 21
141.5181907842087
 31
0.0
  0
LINE
  5
274
330
1F
100
AcDbEntity
  8
0
  6
Continuous
 62
     7
100
AcDbLine
 10
231.5215734868401
 20
139.6661559088064
 30
0.0
 11
231.5474707223142
 21
139.8770719660301
 31
0.0
  0
LINE
  5
275
330
1F
100
AcDbEntity
  8
0
  6
Continuous
 62
     7
100
AcDbLine
 10
230.1801473628968
 20
139.8308623264184
 30
0.0
 11
231.5215734868401
 21
139.6661559088064
 31
0.0
  0
LINE
  5
276
330
1F
100
AcDbEntity
  8
0
  6
Continuous
 62
     7
100
AcDbLine
 10
232.6359119899279
 20
140.354954675176
 30
0.0
 11
232.5611846616043
 21
140.1789081219532
 31
0.0
  0
LINE
  5
277
330
1F
100
AcDbEntity
  8
0
  6
Continuous
 62
     7
100
AcDbLine
 10
228.579230955522
 20
139.7794962933513
 30
0.0
 11
228.8597309555218
 21
139.7794962933513
 31
0.0
  0
LINE
  5
278
330
1F
100
AcDbEntity
  8
0
  6
Continuous
 62
     7
100
AcDbLine
 10
228.8597309555218
 20
139.7794962933513
 30
0.0
 11
228.8597309555218
 21
141.4794962933513
 31
0.0
  0
LINE
  5
279
330
1F
100
AcDbEntity
  8
0
  6
Continuous
 62
     7
100
AcDbLine
 10
228.8597309555218
 20
141.4794962933513
 30
0.0
 11
228.579230955522
 21
141.4794962933513
 31
0.0
  0
LINE
  5
27A
330
1F
100
AcDbEntity
  8
0
  6
Continuous
 62
     7
100
AcDbLine
 10
228.579230955522
 20
141.4794962933513
 30
0.0
 11
228.579230955522
 21
139.7794962933513
 31
0.0
  0
LINE
  5
27B
330
1F
100
AcDbEntity
  8
0
  6
Continuous
 62
     7
100
AcDbLine
 10
230.5773350575334
 20
138.7297438241689
 30
0.0
 11
227.5773350575354
 21
138.7297438241689
 31
0.0
  0
LINE
  5
27C
330
1F
100
AcDbEntity
  8
0
  6
Continuous
 62
     7
100
AcDbLine
 10
229.9773350575334
 20
142.0297438241717
 30
0.0
 11
227.7863431721467
 21
142.0297438241717
 31
0.0
  0
LINE
  5
27D
330
1F
100
AcDbEntity
  8
0
  6
Continuous
 62
     7
100
AcDbLine
 10
230.3873252466856
 20
141.5181907842087
 30
0.0
 11
230.1801473628968
 21
139.8308623264184
 31
0.0
  0
LINE
  5
27E
330
1F
100
AcDbEntity
  8
0
  6
Continuous
 62
     7
100
AcDbLine
 10
232.5611846616043
 20
140.1789081219532
 30
0.0
 11
233.6096396896868
 21
139.7338653666039
 31
0.0
  0
LINE
  5
27F
330
1F
100
AcDbEntity
  8
0
  6
Continuous
 62
     7
100
AcDbLine
 10
233.6843670180103
 20
139.9099119198265
 30
0.0
 11
232.6359119899279
 21
140.354954675176
 31
0.0
  0
LINE
  5
280
330
1F
100
AcDbEntity
  8
0
  6
Continuous
 62
     7
100
AcDbLine
 10
237.3773128674657
 20
133.3244110818671
 30
0.0
 11
238.6098128674657
 21
133.3244110818671
 31
0.0
  0
LINE
  5
281
330
1F
100
AcDbEntity
  8
0
  6
Continuous
 62
     7
100
AcDbLine
 10
237.3773128674657
 20
132.8654110818671
 30
0.0
 11
237.3773128674657
 21
133.3244110818671
 31
0.0
  0
LINE
  5
282
330
1F
100
AcDbEntity
  8
0
  6
Continuous
 62
     7
100
AcDbLine
 10
237.7810628674658
 20
131.9984110818671
 30
0.0
 11
237.9298128674658
 21
131.9729110818671
 31
0.0
  0
LINE
  5
283
330
1F
100
AcDbEntity
  8
0
  6
Continuous
 62
     7
100
AcDbLine
 10
237.9298128674658
 20
132.2534110818671
 30
0.0
 11
237.7810628674658
 21
132.2789110818671
 31
0.0
  0
LINE
  5
284
330
1F
100
AcDbEntity
  8
0
  6
Continuous
 62
     7
100
AcDbLine
 10
238.2060628674662
 20
131.9984110818672
 30
0.0
 11
238.3973128674663
 21
132.0749110818674
 31
0.0
  0
LINE
  5
285
330
1F
100
AcDbEntity
  8
0
  6
Continuous
 62
     7
100
AcDbLine
 10
238.3335628674657
 20
132.3299110818671
 30
0.0
 11
238.2060628674657
 21
132.2789110818671
 31
0.0
  0
LINE
  5
286
330
1F
100
AcDbEntity
  8
0
  6
Continuous
 62
     7
100
AcDbLine
 10
238.3973128674663
 20
132.0749110818674
 30
0.0
 11
238.5460628674668
 21
132.1769110818677
 31
0.0
  0
LINE
  5
287
330
1F
100
AcDbEntity
  8
0
  6
Continuous
 62
     7
100
AcDbLine
 10
238.4398128674657
 20
132.4064110818672
 30
0.0
 11
238.3335628674657
 21
132.3299110818671
 31
0.0
  0
LINE
  5
288
330
1F
100
AcDbEntity
  8
0
  6
Continuous
 62
     7
100
AcDbLine
 10
238.5035628674656
 20
132.482911081867
 30
0.0
 11
238.4398128674657
 21
132.4064110818672
 31
0.0
  0
LINE
  5
289
330
1F
100
AcDbEntity
  8
0
  6
Continuous
 62
     7
100
AcDbLine
 10
238.5460628674658
 20
132.5594110818672
 30
0.0
 11
238.5035628674656
 21
132.482911081867
 31
0.0
  0
LINE
  5
28A
330
1F
100
AcDbEntity
  8
0
  6
Continuous
 62
     7
100
AcDbLine
 10
237.3985628674656
 20
132.6869110818671
 30
0.0
 11
237.3773128674657
 21
132.8654110818671
 31
0.0
  0
LINE
  5
28B
330
1F
100
AcDbEntity
  8
0
  6
Continuous
 62
     7
100
AcDbLine
 10
237.3560628674656
 20
132.278911081867
 30
0.0
 11
237.4623128674663
 21
132.1769110818666
 31
0.0
  0
LINE
  5
28C
330
1F
100
AcDbEntity
  8
0
  6
Continuous
 62
     7
100
AcDbLine
 10
237.4410628674656
 20
132.559411081867
 30
0.0
 11
237.3985628674656
 21
132.6869110818671
 31
0.0
  0
LINE
  5
28D
330
1F
100
AcDbEntity
  8
0
  6
Continuous
 62
     7
100
AcDbLine
 10
237.4835628674657
 20
132.482911081867
 30
0.0
 11
237.4410628674656
 21
132.559411081867
 31
0.0
  0
LINE
  5
28E
330
1F
100
AcDbEntity
  8
0
  6
Continuous
 62
     7
100
AcDbLine
 10
237.4623128674663
 20
132.1769110818666
 30
0.0
 11
237.5898128674659
 21
132.074911081867
 31
0.0
  0
LINE
  5
28F
330
1F
100
AcDbEntity
  8
0
  6
Continuous
 62
     7
100
AcDbLine
 10
237.5473128674657
 20
132.406411081867
 30
0.0
 11
237.4835628674657
 21
132.482911081867
 31
0.0
  0
LINE
  5
290
330
1F
100
AcDbEntity
  8
0
  6
Continuous
 62
     7
100
AcDbLine
 10
237.5898128674659
 20
132.074911081867
 30
0.0
 11
237.7810628674658
 21
131.9984110818671
 31
0.0
  0
LINE
  5
291
330
1F
100
AcDbEntity
  8
0
  6
Continuous
 62
     7
100
AcDbLine
 10
237.7810628674658
 20
132.2789110818671
 30
0.0
 11
237.6535628674658
 21
132.329911081867
 31
0.0
  0
LINE
  5
292
330
1F
100
AcDbEntity
  8
0
  6
Continuous
 62
     7
100
AcDbLine
 10
237.2073128674658
 20
132.5339110818671
 30
0.0
 11
237.2498128674657
 21
132.431911081867
 31
0.0
  0
LINE
  5
293
330
1F
100
AcDbEntity
  8
0
  6
Continuous
 62
     7
100
AcDbLine
 10
237.1648128674657
 20
132.6869110818669
 30
0.0
 11
237.2073128674658
 21
132.5339110818671
 31
0.0
  0
LINE
  5
294
330
1F
100
AcDbEntity
  8
0
  6
Continuous
 62
     7
100
AcDbLine
 10
237.9298128674658
 20
131.9729110818671
 30
0.0
 11
238.0573128674662
 21
131.9729110818672
 31
0.0
  0
LINE
  5
295
330
1F
100
AcDbEntity
  8
0
  6
Continuous
 62
     7
100
AcDbLine
 10
238.0573128674657
 20
132.2534110818671
 30
0.0
 11
237.9298128674658
 21
132.2534110818671
 31
0.0
  0
LINE
  5
296
330
1F
100
AcDbEntity
  8
0
  6
Continuous
 62
     7
100
AcDbLine
 10
238.0573128674662
 20
131.9729110818672
 30
0.0
 11
238.2060628674662
 21
131.9984110818672
 31
0.0
  0
LINE
  5
297
330
1F
100
AcDbEntity
  8
0
  6
Continuous
 62
     7
100
AcDbLine
 10
238.2060628674657
 20
132.2789110818671
 30
0.0
 11
238.0573128674657
 21
132.2534110818671
 31
0.0
  0
LINE
  5
298
330
1F
100
AcDbEntity
  8
0
  6
Continuous
 62
     7
100
AcDbLine
 10
236.0773350575334
 20
131.9611889922779
 30
0.0
 11
236.0773350575334
 21
133.2297438241689
 31
0.0
  0
LINE
  5
299
330
1F
100
AcDbEntity
  8
0
  6
Continuous
 62
     7
100
AcDbLine
 10
237.2498128674657
 20
132.431911081867
 30
0.0
 11
237.3560628674656
 21
132.278911081867
 31
0.0
  0
LINE
  5
29A
330
1F
100
AcDbEntity
  8
0
  6
Continuous
 62
     7
100
AcDbLine
 10
237.6535628674658
 20
132.329911081867
 30
0.0
 11
237.5473128674657
 21
132.406411081867
 31
0.0
  0
LINE
  5
29B
330
1F
100
AcDbEntity
  8
0
  6
Continuous
 62
     7
100
AcDbLine
 10
237.5505477417616
 20
136.3814340799015
 30
0.0
 11
237.6649179068308
 21
136.479903759712
 31
0.0
  0
LINE
  5
29C
330
1F
100
AcDbEntity
  8
0
  6
Continuous
 62
     7
100
AcDbLine
 10
235.652794472242
 20
137.9581630545163
 30
0.0
 11
235.7118930642128
 21
138.1038851150531
 31
0.0
  0
LINE
  5
29D
330
1F
100
AcDbEntity
  8
0
  6
Continuous
 62
     7
100
AcDbLine
 10
234.0831847580272
 20
138.562377757697
 30
0.0
 11
234.8144983412626
 21
137.9266565586057
 31
0.0
  0
LINE
  5
29E
330
1F
100
AcDbEntity
  8
0
  6
Continuous
 62
     7
100
AcDbLine
 10
237.1713173369082
 20
137.8790202585686
 30
0.0
 11
235.7141329257144
 21
137.0034555312215
 31
0.0
  0
LINE
  5
29F
330
1F
100
AcDbEntity
  8
0
  6
Continuous
 62
     7
100
AcDbLine
 10
237.6309888187652
 20
137.1139984426919
 30
0.0
 11
237.1713173369082
 21
137.8790202585686
 31
0.0
  0
LINE
  5
2A0
330
1F
100
AcDbEntity
  8
0
  6
Continuous
 62
     7
100
AcDbLine
 10
237.717841780907
 20
136.9281917542567
 30
0.0
 11
237.6309888187652
 21
137.1139984426919
 31
0.0
  0
LINE
  5
2A1
330
1F
100
AcDbEntity
  8
0
  6
Continuous
 62
     7
100
AcDbLine
 10
237.7419981909484
 20
136.7642114799737
 30
0.0
 11
237.717841780907
 21
136.9281917542567
 31
0.0
  0
LINE
  5
2A2
330
1F
100
AcDbEntity
  8
0
  6
Continuous
 62
     7
100
AcDbLine
 10
237.7216728540295
 20
136.6330021789347
 30
0.0
 11
237.7419981909484
 21
136.7642114799737
 31
0.0
  0
LINE
  5
2A3
330
1F
100
AcDbEntity
  8
0
  6
Continuous
 62
     7
100
AcDbLine
 10
237.6649179068308
 20
136.479903759712
 30
0.0
 11
237.7216728540295
 21
136.6330021789347
 31
0.0
  0
LINE
  5
2A4
330
1F
100
AcDbEntity
  8
0
  6
Continuous
 62
     7
100
AcDbLine
 10
234.9486070449935
 20
138.1197994282219
 30
0.0
 11
234.4482345933056
 21
138.5547665644428
 31
0.0
  0
LINE
  5
2A5
330
1F
100
AcDbEntity
  8
0
  6
Continuous
 62
     7
100
AcDbLine
 10
237.1435628674656
 20
132.865411081867
 30
0.0
 11
237.1648128674657
 21
132.6869110818669
 31
0.0
  0
LINE
  5
2A6
330
1F
100
AcDbEntity
  8
0
  6
Continuous
 62
     7
100
AcDbLine
 10
237.1435628674657
 20
133.6049110818671
 30
0.0
 11
237.1435628674656
 21
132.865411081867
 31
0.0
  0
LINE
  5
2A7
330
1F
100
AcDbEntity
  8
0
  6
Continuous
 62
     7
100
AcDbLine
 10
236.5284081221473
 20
135.6482740288112
 30
0.0
 11
236.634726150536
 21
135.8014038000497
 31
0.0
  0
LINE
  5
2A8
330
1F
100
AcDbEntity
  8
0
  6
Continuous
 62
     7
100
AcDbLine
 10
236.634726150536
 20
135.8014038000497
 30
0.0
 11
236.7490963156051
 21
135.8998734798605
 31
0.0
  0
LINE
  5
2A9
330
1F
100
AcDbEntity
  8
0
  6
Continuous
 62
     7
100
AcDbLine
 10
235.9940517260406
 20
138.5062084328654
 30
0.0
 11
236.0498167435048
 21
138.5703587471843
 31
0.0
  0
LINE
  5
2AA
330
1F
100
AcDbEntity
  8
0
  6
Continuous
 62
     7
100
AcDbLine
 10
235.9051003599149
 20
138.442750045206
 30
0.0
 11
235.9940517260406
 21
138.5062084328654
 31
0.0
  0
LINE
  5
2AB
330
1F
100
AcDbEntity
  8
0
  6
Continuous
 62
     7
100
AcDbLine
 10
235.7711410525902
 20
139.0660165644263
 30
0.0
 11
235.8341801754067
 21
138.9830609648895
 31
0.0
  0
LINE
  5
2AC
330
1F
100
AcDbEntity
  8
0
  6
Continuous
 62
     7
100
AcDbLine
 10
235.8341801754067
 20
138.9830609648895
 30
0.0
 11
235.8640329495617
 21
138.9007972920123
 31
0.0
  0
LINE
  5
2AD
330
1F
100
AcDbEntity
  8
0
  6
Continuous
 62
     7
100
AcDbLine
 10
235.6780997592124
 20
138.4148264480037
 30
0.0
 11
235.7444724565359
 21
138.4134425946846
 31
0.0
  0
LINE
  5
2AE
330
1F
100
AcDbEntity
  8
0
  6
Continuous
 62
     7
100
AcDbLine
 10
235.7444724565359
 20
138.4134425946846
 30
0.0
 11
235.9051003599149
 21
138.442750045206
 31
0.0
  0
LINE
  5
2AF
330
1F
100
AcDbEntity
  8
0
  6
Continuous
 62
     7
100
AcDbLine
 10
235.7118930642128
 20
138.1038851150531
 30
0.0
 11
235.7185602132265
 21
138.2670286074885
 31
0.0
  0
LINE
  5
2B0
330
1F
100
AcDbEntity
  8
0
  6
Continuous
 62
     7
100
AcDbLine
 10
235.9297986905464
 20
139.2096628449843
 30
0.0
 11
235.1984851073104
 21
139.8453840440762
 31
0.0
  0
LINE
  5
2B1
330
1F
100
AcDbEntity
  8
0
  6
Continuous
 62
     7
100
AcDbLine
 10
236.0120829076588
 20
139.1099777402082
 30
0.0
 11
235.9297986905464
 21
139.2096628449843
 31
0.0
  0
LINE
  5
2B2
330
1F
100
AcDbEntity
  8
0
  6
Continuous
 62
     7
100
AcDbLine
 10
236.0857297103345
 20
138.9614879730336
 30
0.0
 11
236.0120829076588
 21
139.1099777402082
 31
0.0
  0
LINE
  5
2B3
330
1F
100
AcDbEntity
  8
0
  6
Continuous
 62
     7
100
AcDbLine
 10
236.7490963156051
 20
135.8998734798605
 30
0.0
 11
236.8583851464447
 21
135.9655408344116
 31
0.0
  0
LINE
  5
2B4
330
1F
100
AcDbEntity
  8
0
  6
Continuous
 62
     7
100
AcDbLine
 10
236.4589096944744
 20
136.0527524349734
 30
0.0
 11
236.3576730003146
 21
135.932424988994
 31
0.0
  0
LINE
  5
2B5
330
1F
100
AcDbEntity
  8
0
  6
Continuous
 62
     7
100
AcDbLine
 10
236.3576730003146
 20
135.932424988994
 30
0.0
 11
236.5284081221473
 21
135.6482740288112
 31
0.0
  0
LINE
  5
2B6
330
1F
100
AcDbEntity
  8
0
  6
Continuous
 62
     7
100
AcDbLine
 10
235.2707686009023
 20
139.5009837006471
 30
0.0
 11
235.7711410525902
 21
139.0660165644263
 31
0.0
  0
LINE
  5
2B7
330
1F
100
AcDbEntity
  8
0
  6
Continuous
 62
     7
100
AcDbLine
 10
233.6096396896868
 20
139.7338653666039
 30
0.0
 11
233.6843670180103
 21
139.9099119198265
 31
0.0
  0
LINE
  5
2B8
330
1F
100
AcDbEntity
  8
0
  6
Continuous
 62
     7
100
AcDbLine
 10
234.8385897155549
 20
139.0038187646754
 30
0.0
 11
235.3389621672426
 21
138.5688516284546
 31
0.0
  0
LINE
  5
2B9
330
1F
100
AcDbEntity
  8
0
  6
Continuous
 62
     7
100
AcDbLine
 10
234.9640610048493
 20
139.1481569718929
 30
0.0
 11
235.2707686009023
 21
139.5009837006471
 31
0.0
  0
LINE
  5
2BA
330
1F
100
AcDbEntity
  8
0
  6
Continuous
 62
     7
100
AcDbLine
 10
234.4482345933056
 20
138.5547665644428
 30
0.0
 11
234.8385897155549
 21
139.0038187646754
 31
0.0
  0
LINE
  5
2BB
330
1F
100
AcDbEntity
  8
0
  6
Continuous
 62
     7
100
AcDbLine
 10
235.7185602132265
 20
138.2670286074885
 30
0.0
 11
235.6780997592124
 21
138.4148264480037
 31
0.0
  0
LINE
  5
2BC
330
1F
100
AcDbEntity
  8
0
  6
Continuous
 62
     7
100
AcDbLine
 10
235.1984851073104
 20
139.8453840440762
 30
0.0
 11
234.0831847580272
 21
138.562377757697
 31
0.0
  0
LINE
  5
2BD
330
1F
100
AcDbEntity
  8
0
  6
Continuous
 62
     7
100
AcDbLine
 10
235.4644334565373
 20
138.7131898356721
 30
0.0
 11
234.9640610048493
 21
139.1481569718929
 31
0.0
  0
LINE
  5
2BE
330
1F
100
AcDbEntity
  8
0
  6
Continuous
 62
     7
100
AcDbLine
 10
238.6098128674657
 20
133.3244110818671
 30
0.0
 11
238.6098128674657
 21
132.8654110818671
 31
0.0
  0
LINE
  5
2BF
330
1F
100
AcDbEntity
  8
0
  6
Continuous
 62
     7
100
AcDbLine
 10
238.6098128674657
 20
132.8654110818671
 30
0.0
 11
238.5885628674658
 21
132.6869110818671
 31
0.0
  0
LINE
  5
2C0
330
1F
100
AcDbEntity
  8
0
  6
Continuous
 62
     7
100
AcDbLine
 10
238.8435628674657
 20
132.8654110818671
 30
0.0
 11
238.8435628674658
 21
133.6049110818671
 31
0.0
  0
LINE
  5
2C1
330
1F
100
AcDbEntity
  8
0
  6
Continuous
 62
     7
100
AcDbLine
 10
238.8223128674658
 20
132.6869110818672
 30
0.0
 11
238.8435628674657
 21
132.8654110818671
 31
0.0
  0
LINE
  5
2C2
330
1F
100
AcDbEntity
  8
0
  6
Continuous
 62
     7
100
AcDbLine
 10
238.7798128674656
 20
132.5339110818671
 30
0.0
 11
238.8223128674658
 21
132.6869110818672
 31
0.0
  0
LINE
  5
2C3
330
1F
100
AcDbEntity
  8
0
  6
Continuous
 62
     7
100
AcDbLine
 10
238.7373128674656
 20
132.4064110818671
 30
0.0
 11
238.7798128674656
 21
132.5339110818671
 31
0.0
  0
LINE
  5
2C4
330
1F
100
AcDbEntity
  8
0
  6
Continuous
 62
     7
100
AcDbLine
 10
238.6523128674655
 20
132.2789110818669
 30
0.0
 11
238.7373128674656
 21
132.4064110818671
 31
0.0
  0
LINE
  5
2C5
330
1F
100
AcDbEntity
  8
0
  6
Continuous
 62
     7
100
AcDbLine
 10
238.5460628674668
 20
132.1769110818677
 30
0.0
 11
238.6523128674655
 21
132.2789110818669
 31
0.0
  0
LINE
  5
2C6
330
1F
100
AcDbEntity
  8
0
  6
Continuous
 62
     7
100
AcDbLine
 10
238.5885628674658
 20
132.6869110818671
 30
0.0
 11
238.5460628674658
 21
132.5594110818672
 31
0.0
  0
LINE
  5
2C7
330
1F
100
AcDbEntity
  8
0
  6
Continuous
 62
     7
100
AcDbLine
 10
238.540193056596
 20
134.9436739366708
 30
0.0
 11
238.4628767782894
 21
135.2133078423814
 31
0.0
  0
LINE
  5
2C8
330
1F
100
AcDbEntity
  8
0
  6
Continuous
 62
     7
100
AcDbLine
 10
238.4628767782894
 20
135.2133078423814
 30
0.0
 11
236.828731895194
 21
134.7447243374926
 31
0.0
  0
LINE
  5
2C9
330
1F
100
AcDbEntity
  8
0
  6
Continuous
 62
     7
100
AcDbLine
 10
236.828731895194
 20
134.7447243374926
 30
0.0
 11
236.9060481735008
 21
134.4750904317818
 31
0.0
  0
LINE
  5
2CA
330
1F
100
AcDbEntity
  8
0
  6
Continuous
 62
     7
100
AcDbLine
 10
238.8435628674658
 20
133.6049110818671
 30
0.0
 11
237.1435628674657
 21
133.6049110818671
 31
0.0
  0
LINE
  5
2CB
330
1F
100
AcDbEntity
  8
0
  6
Continuous
 62
     7
100
AcDbLine
 10
237.4992641192279
 20
136.7968570451547
 30
0.0
 11
237.4840201165388
 21
136.6984500693754
 31
0.0
  0
LINE
  5
2CC
330
1F
100
AcDbEntity
  8
0
  6
Continuous
 62
     7
100
AcDbLine
 10
237.4094403546355
 20
137.0701261502771
 30
0.0
 11
237.4700263749568
 21
136.9280349941779
 31
0.0
  0
LINE
  5
2CD
330
1F
100
AcDbEntity
  8
0
  6
Continuous
 62
     7
100
AcDbLine
 10
237.4840201165388
 20
136.6984500693754
 30
0.0
 11
237.4192130326596
 21
136.6000117415805
 31
0.0
  0
LINE
  5
2CE
330
1F
100
AcDbEntity
  8
0
  6
Continuous
 62
     7
100
AcDbLine
 10
237.4700263749568
 20
136.9280349941779
 30
0.0
 11
237.4992641192279
 21
136.7968570451547
 31
0.0
  0
LINE
  5
2CF
330
1F
100
AcDbEntity
  8
0
  6
Continuous
 62
     7
100
AcDbLine
 10
237.1925832343
 20
136.523337123906
 30
0.0
 11
237.09853840615
 21
136.5560767451341
 31
0.0
  0
LINE
  5
2D0
330
1F
100
AcDbEntity
  8
0
  6
Continuous
 62
     7
100
AcDbLine
 10
237.09853840615
 20
136.5560767451341
 30
0.0
 11
236.996441441319
 21
136.64347645779
 31
0.0
  0
LINE
  5
2D1
330
1F
100
AcDbEntity
  8
0
  6
Continuous
 62
     7
100
AcDbLine
 10
237.1336374655213
 20
137.5291392398032
 30
0.0
 11
237.4094403546355
 21
137.0701261502771
 31
0.0
  0
LINE
  5
2D2
330
1F
100
AcDbEntity
  8
0
  6
Continuous
 62
     7
100
AcDbLine
 10
237.0184873195814
 20
136.35923144156
 30
0.0
 11
237.1387990895524
 21
136.2827762879959
 31
0.0
  0
LINE
  5
2D3
330
1F
100
AcDbEntity
  8
0
  6
Continuous
 62
     7
100
AcDbLine
 10
237.3099242018203
 20
136.5343443870295
 30
0.0
 11
237.1925832343
 21
136.523337123906
 31
0.0
  0
LINE
  5
2D4
330
1F
100
AcDbEntity
  8
0
  6
Continuous
 62
     7
100
AcDbLine
 10
237.4192130326596
 20
136.6000117415805
 30
0.0
 11
237.3099242018203
 21
136.5343443870295
 31
0.0
  0
LINE
  5
2D5
330
1F
100
AcDbEntity
  8
0
  6
Continuous
 62
     7
100
AcDbLine
 10
237.3006218040331
 20
136.2610125778756
 30
0.0
 11
237.4412589109224
 21
136.3157667253504
 31
0.0
  0
LINE
  5
2D6
330
1F
100
AcDbEntity
  8
0
  6
Continuous
 62
     7
100
AcDbLine
 10
237.1387990895524
 20
136.2827762879959
 30
0.0
 11
237.3006218040331
 21
136.2610125778756
 31
0.0
  0
LINE
  5
2D7
330
1F
100
AcDbEntity
  8
0
  6
Continuous
 62
     7
100
AcDbLine
 10
237.4412589109224
 20
136.3157667253504
 30
0.0
 11
237.5505477417616
 21
136.3814340799015
 31
0.0
  0
LINE
  5
2D8
330
1F
100
AcDbEntity
  8
0
  6
Continuous
 62
     7
100
AcDbLine
 10
236.5914946646828
 20
136.1621666738755
 30
0.0
 11
236.4589096944744
 21
136.0527524349734
 31
0.0
  0
LINE
  5
2D9
330
1F
100
AcDbEntity
  8
0
  6
Continuous
 62
     7
100
AcDbLine
 10
236.8583851464447
 20
135.9655408344116
 30
0.0
 11
236.9727553115139
 21
136.0640105142224
 31
0.0
  0
LINE
  5
2DA
330
1F
100
AcDbEntity
  8
0
  6
Continuous
 62
     7
100
AcDbLine
 10
236.6910108174979
 20
136.697948437123
 30
0.0
 11
236.7515968378194
 21
136.5558572810238
 31
0.0
  0
LINE
  5
2DB
330
1F
100
AcDbEntity
  8
0
  6
Continuous
 62
     7
100
AcDbLine
 10
236.996441441319
 20
136.64347645779
 30
0.0
 11
236.8994258107177
 21
136.7636784957057
 31
0.0
  0
LINE
  5
2DC
330
1F
100
AcDbEntity
  8
0
  6
Continuous
 62
     7
100
AcDbLine
 10
237.0295102587127
 20
136.2171089334446
 30
0.0
 11
237.0184873195814
 21
136.35923144156
 31
0.0
  0
LINE
  5
2DD
330
1F
100
AcDbEntity
  8
0
  6
Continuous
 62
     7
100
AcDbLine
 10
235.7141329257144
 20
137.0034555312215
 30
0.0
 11
235.8586011057266
 21
136.7630201033743
 31
0.0
  0
LINE
  5
2DE
330
1F
100
AcDbEntity
  8
0
  6
Continuous
 62
     7
100
AcDbLine
 10
236.9727553115139
 20
136.0640105142224
 30
0.0
 11
237.0295102587127
 21
136.2171089334446
 31
0.0
  0
LINE
  5
2DF
330
1F
100
AcDbEntity
  8
0
  6
Continuous
 62
     7
100
AcDbLine
 10
236.441474870204
 20
137.1132459943131
 30
0.0
 11
236.6910108174979
 21
136.697948437123
 31
0.0
  0
LINE
  5
2E0
330
1F
100
AcDbEntity
  8
0
  6
Continuous
 62
     7
100
AcDbLine
 10
236.7515968378194
 20
136.5558572810238
 30
0.0
 11
236.7808345820906
 21
136.4246793320003
 31
0.0
  0
LINE
  5
2E1
330
1F
100
AcDbEntity
  8
0
  6
Continuous
 62
     7
100
AcDbLine
 10
236.7808345820906
 20
136.4246793320003
 30
0.0
 11
236.7655905794015
 21
136.3262723562211
 31
0.0
  0
LINE
  5
2E2
330
1F
100
AcDbEntity
  8
0
  6
Continuous
 62
     7
100
AcDbLine
 10
236.7655905794015
 20
136.3262723562211
 30
0.0
 11
236.7007834955221
 21
136.2278340284264
 31
0.0
  0
LINE
  5
2E3
330
1F
100
AcDbEntity
  8
0
  6
Continuous
 62
     7
100
AcDbLine
 10
236.7007834955221
 20
136.2278340284264
 30
0.0
 11
236.5914946646828
 21
136.1621666738755
 31
0.0
  0
LINE
  5
2E4
330
1F
100
AcDbEntity
  8
0
  6
Continuous
 62
     7
100
AcDbLine
 10
236.1002779210396
 20
138.6672761453223
 30
0.0
 11
236.1069450700531
 21
138.8304196377576
 31
0.0
  0
LINE
  5
2E5
330
1F
100
AcDbEntity
  8
0
  6
Continuous
 62
     7
100
AcDbLine
 10
235.8640329495617
 20
138.9007972920123
 30
0.0
 11
235.8606993750549
 21
138.8192255457946
 31
0.0
  0
LINE
  5
2E6
330
1F
100
AcDbEntity
  8
0
  6
Continuous
 62
     7
100
AcDbLine
 10
235.8606993750549
 20
138.8192255457946
 30
0.0
 11
235.8381207062525
 21
138.7543833048161
 31
0.0
  0
LINE
  5
2E7
330
1F
100
AcDbEntity
  8
0
  6
Continuous
 62
     7
100
AcDbLine
 10
236.1069450700531
 20
138.8304196377576
 30
0.0
 11
236.0857297103345
 21
138.9614879730336
 31
0.0
  0
LINE
  5
2E8
330
1F
100
AcDbEntity
  8
0
  6
Continuous
 62
     7
100
AcDbLine
 10
235.8381207062525
 20
138.7543833048161
 30
0.0
 11
235.7823556887885
 21
138.6902329904974
 31
0.0
  0
LINE
  5
2E9
330
1F
100
AcDbEntity
  8
0
  6
Continuous
 62
     7
100
AcDbLine
 10
235.4212463843549
 20
138.4691665236786
 30
0.0
 11
235.4564029984394
 21
138.3541357669823
 31
0.0
  0
LINE
  5
2EA
330
1F
100
AcDbEntity
  8
0
  6
Continuous
 62
     7
100
AcDbLine
 10
235.4583732638624
 20
138.2397969369456
 30
0.0
 11
235.4218533406938
 21
138.1589171173874
 31
0.0
  0
LINE
  5
2EB
330
1F
100
AcDbEntity
  8
0
  6
Continuous
 62
     7
100
AcDbLine
 10
235.4218533406938
 20
138.1589171173874
 30
0.0
 11
235.3660883232298
 21
138.0947668030686
 31
0.0
  0
LINE
  5
2EC
330
1F
100
AcDbEntity
  8
0
  6
Continuous
 62
     7
100
AcDbLine
 10
235.3660883232298
 20
138.0947668030686
 30
0.0
 11
235.2910782114699
 21
138.0473459939889
 31
0.0
  0
LINE
  5
2ED
330
1F
100
AcDbEntity
  8
0
  6
Continuous
 62
     7
100
AcDbLine
 10
235.2910782114699
 20
138.0473459939889
 30
0.0
 11
235.1775779111189
 21
138.0333841953877
 31
0.0
  0
LINE
  5
2EE
330
1F
100
AcDbEntity
  8
0
  6
Continuous
 62
     7
100
AcDbLine
 10
235.1775779111189
 20
138.0333841953877
 30
0.0
 11
235.0587737708378
 21
138.0521894806054
 31
0.0
  0
LINE
  5
2EF
330
1F
100
AcDbEntity
  8
0
  6
Continuous
 62
     7
100
AcDbLine
 10
235.4564029984394
 20
138.3541357669823
 30
0.0
 11
235.4583732638624
 21
138.2397969369456
 31
0.0
  0
LINE
  5
2F0
330
1F
100
AcDbEntity
  8
0
  6
Continuous
 62
     7
100
AcDbLine
 10
235.5553550880861
 20
138.6623093932948
 30
0.0
 11
235.4644334565373
 21
138.7131898356721
 31
0.0
  0
LINE
  5
2F1
330
1F
100
AcDbEntity
  8
0
  6
Continuous
 62
     7
100
AcDbLine
 10
235.7212868313945
 20
138.6588497599973
 30
0.0
 11
235.640972879705
 21
138.6441960347366
 31
0.0
  0
LINE
  5
2F2
330
1F
100
AcDbEntity
  8
0
  6
Continuous
 62
     7
100
AcDbLine
 10
236.0498167435048
 20
138.5703587471843
 30
0.0
 11
236.1002779210396
 21
138.6672761453223
 31
0.0
  0
LINE
  5
2F3
330
1F
100
AcDbEntity
  8
0
  6
Continuous
 62
     7
100
AcDbLine
 10
235.640972879705
 20
138.6441960347366
 30
0.0
 11
235.5553550880861
 21
138.6623093932948
 31
0.0
  0
LINE
  5
2F4
330
1F
100
AcDbEntity
  8
0
  6
Continuous
 62
     7
100
AcDbLine
 10
235.7823556887885
 20
138.6902329904974
 30
0.0
 11
235.7212868313945
 21
138.6588497599973
 31
0.0
  0
LINE
  5
2F5
330
1F
100
AcDbEntity
  8
0
  6
Continuous
 62
     7
100
AcDbLine
 10
235.5830882004117
 20
137.8779751616177
 30
0.0
 11
235.652794472242
 21
137.9581630545163
 31
0.0
  0
LINE
  5
2F6
330
1F
100
AcDbEntity
  8
0
  6
Continuous
 62
     7
100
AcDbLine
 10
235.447009231259
 20
137.7991711220383
 30
0.0
 11
235.5830882004117
 21
137.8779751616177
 31
0.0
  0
LINE
  5
2F7
330
1F
100
AcDbEntity
  8
0
  6
Continuous
 62
     7
100
AcDbLine
 10
235.3195676765416
 20
137.7691717448574
 30
0.0
 11
235.447009231259
 21
137.7991711220383
 31
0.0
  0
LINE
  5
2F8
330
1F
100
AcDbEntity
  8
0
  6
Continuous
 62
     7
100
AcDbLine
 10
235.1536359332322
 20
137.7726313781548
 30
0.0
 11
235.3195676765416
 21
137.7691717448574
 31
0.0
  0
LINE
  5
2F9
330
1F
100
AcDbEntity
  8
0
  6
Continuous
 62
     7
100
AcDbLine
 10
234.9963416043599
 20
137.8248956738511
 30
0.0
 11
235.1536359332322
 21
137.7726313781548
 31
0.0
  0
LINE
  5
2FA
330
1F
100
AcDbEntity
  8
0
  6
Continuous
 62
     7
100
AcDbLine
 10
234.8144983412626
 20
137.9266565586057
 30
0.0
 11
234.9963416043599
 21
137.8248956738511
 31
0.0
  0
LINE
  5
2FB
330
1F
100
AcDbEntity
  8
0
  6
Continuous
 62
     7
100
AcDbLine
 10
235.0587737708378
 20
138.0521894806054
 30
0.0
 11
234.9486070449935
 21
138.1197994282219
 31
0.0
  0
LINE
  5
2FC
330
1F
100
AcDbEntity
  8
0
  6
Continuous
 62
     7
100
AcDbLine
 10
235.3389621672426
 20
138.5688516284546
 30
0.0
 11
235.4212463843549
 21
138.4691665236786
 31
0.0
  0
LINE
  5
2FD
330
1F
100
AcDbEntity
  8
0
  6
Continuous
 62
     7
100
AcDbLine
 10
236.8994258107177
 20
136.7636784957057
 30
0.0
 11
236.6236229216035
 21
137.2226915852316
 31
0.0
  0
LINE
  5
2FE
330
1F
100
AcDbEntity
  8
0
  6
Continuous
 62
     7
100
AcDbLine
 10
235.8586011057266
 20
136.7630201033743
 30
0.0
 11
236.441474870204
 21
137.1132459943131
 31
0.0
  0
LINE
  5
2FF
330
1F
100
AcDbEntity
  8
0
  6
Continuous
 62
     7
100
AcDbLine
 10
236.6236229216035
 20
137.2226915852316
 30
0.0
 11
237.1336374655213
 21
137.5291392398032
 31
0.0
  0
LINE
  5
300
330
1F
100
AcDbEntity
  8
0
  6
Continuous
 62
     7
100
AcDbLine
 10
236.9060481735008
 20
134.4750904317818
 30
0.0
 11
238.540193056596
 21
134.9436739366708
 31
0.0
  0
LINE
  5
301
330
1F
100
AcDbEntity
  8
1
  6
DOT_CENTER
 62
     7
100
AcDbLine
 10
227.8273350575333
 20
119.5297438241738
 30
0.0
 11
222.3273350575333
 21
119.5297438241738
 31
0.0
  0
LINE
  5
302
330
1F
100
AcDbEntity
  8
1
  6
DOT_CENTER
 62
     7
100
AcDbLine
 10
225.0773350575333
 20
122.2797438241737
 30
0.0
 11
225.0773350575333
 21
116.7797438241738
 31
0.0
  0
LINE
  5
303
330
1F
100
AcDbEntity
  8
1
  6
Continuous
 62
     7
100
AcDbLine
 10
95.51076595083526
 20
86.22974382417428
 30
0.0
 11
106.8439032040411
 21
86.22974382417428
 31
0.0
  0
LINE
  5
304
330
1F
100
AcDbEntity
  8
0
  6
Continuous
 62
     7
100
AcDbLine
 10
214.5684099247687
 20
68.72974382417425
 30
0.0
 11
213.0773347032661
 21
68.72974382417425
 31
0.0
  0
LINE
  5
305
330
1F
100
AcDbEntity
  8
0
  6
Continuous
 62
     7
100
AcDbLine
 10
93.17733457743822
 20
68.72974382417428
 30
0.0
 11
92.17733457743822
 21
68.72974382417428
 31
0.0
  0
LINE
  5
306
330
1F
100
AcDbEntity
  8
0
  6
Continuous
 62
     7
100
AcDbLine
 10
109.1773345774382
 20
68.72974382417428
 30
0.0
 11
93.17733457743822
 21
68.72974382417428
 31
0.0
  0
LINE
  5
307
330
1F
100
AcDbEntity
  8
1
  6
DASHED
 62
     7
100
AcDbLine
 10
110.1773345774382
 20
68.72974382417428
 30
0.0
 11
110.1773345774382
 21
68.82974382417427
 31
0.0
  0
LINE
  5
308
330
1F
100
AcDbEntity
  8
0
  6
Continuous
 62
     7
100
AcDbLine
 10
110.1773345774382
 20
68.72974382417428
 30
0.0
 11
109.1773345774382
 21
68.72974382417428
 31
0.0
  0
LINE
  5
309
330
1F
100
AcDbEntity
  8
1
  6
DASHED
 62
     7
100
AcDbLine
 10
92.17733457743822
 20
68.72974382417428
 30
0.0
 11
92.17733457743822
 21
68.82974382417427
 31
0.0
  0
LINE
  5
30A
330
1F
100
AcDbEntity
  8
0
  6
Continuous
 62
     7
100
AcDbLine
 10
92.17733457743822
 20
68.72974382417428
 30
0.0
 11
90.17733457743822
 21
68.72974382417428
 31
0.0
  0
LINE
  5
30B
330
1F
100
AcDbEntity
  8
1
  6
Continuous
 62
     7
100
AcDbLine
 10
213.0773347032661
 20
69.72974382417425
 30
0.0
 11
213.0773347032661
 21
85.44688776026845
 31
0.0
  0
ARC
  5
30C
102
{ACAD_REACTORS
330
42F
102
}
330
1F
100
AcDbEntity
  8
1
  6
Continuous
 62
     7
100
AcDbCircle
 10
282.6763006887427
 20
10.84673060906323
 30
0.0
 40
0.3333333333333172
100
AcDbArc
 50
299.9816393688334
 51
119.9816393688323
  0
ARC
  5
30D
102
{ACAD_REACTORS
330
42F
102
}
330
1F
100
AcDbEntity
  8
1
  6
Continuous
 62
     7
100
AcDbCircle
 10
282.6763006887427
 20
12.5
 30
0.0
 40
0.3333333333333695
100
AcDbArc
 50
270.0
 51
90.0
  0
ARC
  5
30E
102
{ACAD_REACTORS
330
42F
102
}
330
1F
100
AcDbEntity
  8
1
  6
Continuous
 62
     7
100
AcDbCircle
 10
282.6763006887427
 20
14.15326939093666
 30
0.0
 40
0.3333333333333471
100
AcDbArc
 50
240.0183606311583
 51
60.01836063115638
  0
ARC
  5
30F
102
{ACAD_REACTORS
330
430
102
}
330
1F
100
AcDbEntity
  8
1
  6
Continuous
 62
     7
100
AcDbCircle
 10
274.6763006887427
 20
10.84673060906323
 30
0.0
 40
0.3333333333333712
100
AcDbArc
 50
180.0
 51
0.0
  0
ARC
  5
310
102
{ACAD_REACTORS
330
430
102
}
330
1F
100
AcDbEntity
  8
1
  6
Continuous
 62
     7
100
AcDbCircle
 10
274.6763006887427
 20
14.15326939093666
 30
0.0
 40
0.3333333333332007
100
AcDbArc
 50
0.0
 51
180.0
  0
ARC
  5
311
102
{ACAD_REACTORS
330
431
102
}
330
1F
100
AcDbEntity
  8
1
  6
Continuous
 62
     7
100
AcDbCircle
 10
278.3429673554093
 20
8.7313459936787
 30
0.0
 40
0.3333333333333709
100
AcDbArc
 50
240.0183606311493
 51
60.01836063115783
  0
ARC
  5
312
102
{ACAD_REACTORS
330
431
102
}
330
1F
100
AcDbEntity
  8
1
  6
Continuous
 62
     7
100
AcDbCircle
 10
276.0096340220759
 20
14.92250016016737
 30
0.0
 40
0.3333333333334281
100
AcDbArc
 50
0.0
 51
180.0
  0
ARC
  5
313
102
{ACAD_REACTORS
330
432
102
}
330
1F
100
AcDbEntity
  8
1
  6
Continuous
 62
     7
100
AcDbCircle
 10
280.078001142934
 20
15.73121731203457
 30
0.0
 40
0.2649662124753149
100
AcDbArc
 50
0.0
 51
149.9999999999685
  0
ARC
  5
314
102
{ACAD_REACTORS
330
432
102
}
330
1F
100
AcDbEntity
  8
1
  6
Continuous
 62
     7
100
AcDbCircle
 10
280.0096340220761
 20
9.3082690706018
 30
0.0
 40
0.3333333333334281
100
AcDbArc
 50
180.0
 51
0.0
  0
ARC
  5
315
102
{ACAD_REACTORS
330
432
102
}
330
1F
100
AcDbEntity
  8
1
  6
Continuous
 62
     7
100
AcDbCircle
 10
277.3429673554093
 20
10.84758507263291
 30
0.0
 40
0.3333333333334281
100
AcDbArc
 50
180.0
 51
0.0
  0
ARC
  5
316
102
{ACAD_REACTORS
330
432
102
}
330
1F
100
AcDbEntity
  8
1
  6
Continuous
 62
     7
100
AcDbCircle
 10
277.2746002345513
 20
15.73121731203457
 30
0.0
 40
0.2649662124752854
100
AcDbArc
 50
30.00000000001921
 51
180.0
  0
ARC
  5
317
330
1F
100
AcDbEntity
  8
0
  6
Continuous
 62
     7
100
AcDbCircle
 10
102.0273341106976
 20
135.5879468099299
 30
0.0
 40
0.2000000000003013
100
AcDbArc
 50
180.0000000006269
 51
0.00000000063509
  0
ARC
  5
318
330
1F
100
AcDbEntity
  8
0
  6
Continuous
 62
     7
100
AcDbCircle
 10
108.4273341106979
 20
134.2797438241716
 30
0.0
 40
0.3000000000000966
100
AcDbArc
 50
270.0
 51
0.0
  0
ARC
  5
319
330
1F
100
AcDbEntity
  8
0
  6
Continuous
 62
     7
100
AcDbCircle
 10
94.02733411068243
 20
134.2797438241869
 30
0.0
 40
0.3000000000154159
100
AcDbArc
 50
180.0000000029257
 51
270.0000000029312
  0
ARC
  5
31A
330
1F
100
AcDbEntity
  8
0
  6
Continuous
 62
     7
100
AcDbCircle
 10
101.2273341107015
 20
134.5547438241674
 30
0.0
 40
0.1999999999989774
100
AcDbArc
 50
240.2480640640625
 51
299.7524870756873
  0
ARC
  5
31B
330
1F
100
AcDbEntity
  8
0
  6
Continuous
 62
     7
100
AcDbCircle
 10
101.0273341106878
 20
135.2449764338778
 30
0.0
 40
0.2000000000000282
100
AcDbArc
 50
240.0183606348615
 51
60.01836063486091
  0
ARC
  5
31C
330
1F
100
AcDbEntity
  8
0
  6
Continuous
 62
     7
100
AcDbCircle
 10
103.6273341102727
 20
136.5024804961625
 30
0.0
 40
0.1999999999999847
100
AcDbArc
 50
299.9816395085159
 51
119.9816395084955
  0
ARC
  5
31D
330
1F
100
AcDbEntity
  8
0
  6
Continuous
 62
     7
100
AcDbCircle
 10
99.82733411069762
 20
136.1612513108672
 30
0.0
 40
0.4000000000000909
100
AcDbArc
 50
180.0
 51
240.01836063105
  0
ARC
  5
31E
330
1F
100
AcDbEntity
  8
0
  6
Continuous
 62
     7
100
AcDbCircle
 10
98.82733411069756
 20
136.5024804964063
 30
0.0
 40
0.2000000000003297
100
AcDbArc
 50
179.999999999943
 51
0.0
  0
ARC
  5
31F
330
1F
100
AcDbEntity
  8
0
  6
Continuous
 62
     7
100
AcDbCircle
 10
102.8273341106976
 20
136.0452305509523
 30
0.0
 40
0.2000000000001023
100
AcDbArc
 50
180.000000000114
 51
299.9816393662173
  0
ARC
  5
320
330
1F
100
AcDbEntity
  8
0
  6
Continuous
 62
     7
100
AcDbCircle
 10
100.4273341106975
 20
136.5024804964065
 30
0.0
 40
0.2000000000004007
100
AcDbArc
 50
180.0
 51
0.0
  0
ARC
  5
321
330
1F
100
AcDbEntity
  8
0
  6
Continuous
 62
     7
100
AcDbCircle
 10
106.3273341106976
 20
137.3547438241686
 30
0.0
 40
0.100000000001832
100
AcDbArc
 50
299.752487076388
 51
60.24751292484912
  0
ARC
  5
322
330
1F
100
AcDbEntity
  8
0
  6
Continuous
 62
     7
100
AcDbCircle
 10
101.2273341106977
 20
137.5359001923462
 30
0.0
 40
0.0999999999999054
100
AcDbArc
 50
209.9999999999636
 51
330.0000000000404
  0
ARC
  5
323
330
1F
100
AcDbEntity
  8
0
  6
Continuous
 62
     7
100
AcDbCircle
 10
96.12744519096157
 20
137.3547438241686
 30
0.0
 40
0.1001110802620002
100
AcDbArc
 50
119.7519359337454
 51
240.2480640649472
  0
ARC
  5
324
330
1F
100
AcDbEntity
  8
0
  6
Continuous
 62
     7
100
AcDbCircle
 10
103.6273341106976
 20
137.3547438241708
 30
0.0
 40
0.2000000000000171
100
AcDbArc
 50
270.0
 51
90.0
  0
ARC
  5
325
330
1F
100
AcDbEntity
  8
0
  6
Continuous
 62
     7
100
AcDbCircle
 10
102.8273341106976
 20
138.6642570973895
 30
0.0
 40
0.1999999999999108
100
AcDbArc
 50
60.01836063078121
 51
180.0
  0
ARC
  5
326
330
1F
100
AcDbEntity
  8
0
  6
Continuous
 62
     7
100
AcDbCircle
 10
99.62733411069763
 20
138.6685456134726
 30
0.0
 40
0.1999999999999886
100
AcDbArc
 50
0.0
 51
179.9999999995929
  0
ARC
  5
327
330
1F
100
AcDbEntity
  8
0
  6
Continuous
 62
     7
100
AcDbCircle
 10
103.6273341111192
 20
138.2069733561341
 30
0.0
 40
0.1999999999999998
100
AcDbArc
 50
240.0183607732073
 51
60.01836077315381
  0
ARC
  5
328
330
1F
100
AcDbEntity
  8
0
  6
Continuous
 62
     7
100
AcDbCircle
 10
98.82733411069756
 20
138.2070071519342
 30
0.0
 40
0.1999999999999886
100
AcDbArc
 50
0.0
 51
180.0
  0
ARC
  5
329
330
1F
100
AcDbEntity
  8
0
  6
Continuous
 62
     7
100
AcDbCircle
 10
102.0273341106976
 20
139.1215408384014
 30
0.0
 40
0.1999999999998039
100
AcDbArc
 50
0.0
 51
150.0000001034022
  0
ARC
  5
32A
330
1F
100
AcDbEntity
  8
0
  6
Continuous
 62
     7
100
AcDbCircle
 10
100.4273341106965
 20
139.1215408384011
 30
0.0
 40
0.1999999999986801
100
AcDbArc
 50
29.99999999991557
 51
179.9999999999186
  0
ARC
  5
32B
330
1F
100
AcDbEntity
  8
0
  6
Continuous
 62
     7
100
AcDbCircle
 10
101.2273341107018
 20
140.1547438241708
 30
0.0
 40
0.1999999999980476
100
AcDbArc
 50
60.2475129248681
 51
119.7519359356492
  0
ARC
  5
32C
330
1F
100
AcDbEntity
  8
1
  6
DASHED
 62
     7
100
AcDbCircle
 10
225.0773350575333
 20
119.5297438241737
 30
0.0
 40
38.02985478255774
100
AcDbArc
 50
350.8496906002918
 51
0.00000000000015
  0
ARC
  5
32D
330
1F
100
AcDbEntity
  8
1
  6
DASHED
 62
     7
100
AcDbCircle
 10
225.0773350575333
 20
119.5297438241737
 30
0.0
 40
38.02985478255769
100
AcDbArc
 50
0.00000000000015
 51
58.00000000000011
  0
ARC
  5
32E
330
1F
100
AcDbEntity
  8
0
  6
Continuous
 62
     7
100
AcDbCircle
 10
254.5773350575347
 20
142.7297438241691
 30
0.0
 40
0.5
100
AcDbArc
 50
359.9999999999642
 51
90.0
  0
ARC
  5
32F
330
1F
100
AcDbEntity
  8
0
  6
Continuous
 62
     7
100
AcDbCircle
 10
254.5773350575347
 20
141.2297438241691
 30
0.0
 40
0.5
100
AcDbArc
 50
270.0
 51
0.0
  0
ARC
  5
330
330
1F
100
AcDbEntity
  8
0
  6
Continuous
 62
     7
100
AcDbCircle
 10
55.97733411069783
 20
144.7297438241723
 30
0.0
 40
0.5
100
AcDbArc
 50
90.0
 51
180.0
  0
ARC
  5
331
330
1F
100
AcDbEntity
  8
0
  6
Continuous
 62
     7
100
AcDbCircle
 10
146.377334110698
 20
113.3297438241734
 30
0.0
 40
0.5
100
AcDbArc
 50
270.0
 51
0.0
  0
ARC
  5
332
330
1F
100
AcDbEntity
  8
0
  6
Continuous
 62
     7
100
AcDbCircle
 10
55.97733411069794
 20
113.3297438241733
 30
0.0
 40
0.5
100
AcDbArc
 50
180.0
 51
270.0
  0
ARC
  5
333
330
1F
100
AcDbEntity
  8
0
  6
Continuous
 62
     7
100
AcDbCircle
 10
146.377334110698
 20
144.7297438241723
 30
0.0
 40
0.5
100
AcDbArc
 50
0.0
 51
90.0
  0
ARC
  5
334
330
1F
100
AcDbEntity
  8
0
  6
Continuous
 62
     7
100
AcDbCircle
 10
114.1773345774382
 20
85.2297438241743
 30
0.0
 40
1.0
100
AcDbArc
 50
90.0
 51
180.0
  0
ARC
  5
335
330
1F
100
AcDbEntity
  8
0
  6
Continuous
 62
     7
100
AcDbCircle
 10
112.1773345774382
 20
69.72974382417428
 30
0.0
 40
1.0
100
AcDbArc
 50
270.0
 51
0.0
  0
ARC
  5
336
330
1F
100
AcDbEntity
  8
0
  6
Continuous
 62
     7
100
AcDbCircle
 10
140.3053551251612
 20
110.3297438241743
 30
0.0
 40
0.4999999999999179
100
AcDbArc
 50
330.9453959009196
 51
29.05460409908046
  0
ARC
  5
337
330
1F
100
AcDbEntity
  8
0
  6
Continuous
 62
     7
100
AcDbCircle
 10
140.9493140297154
 20
109.4297438241743
 30
0.0
 40
0.5000000000001912
100
AcDbArc
 50
150.9453959009369
 51
209.0546040990631
  0
ARC
  5
338
330
1F
100
AcDbEntity
  8
0
  6
Continuous
 62
     7
100
AcDbCircle
 10
140.3773345774383
 20
108.4001808100756
 30
0.0
 40
0.5
100
AcDbArc
 50
0.0
 51
29.05460409907889
  0
ARC
  5
339
330
1F
100
AcDbEntity
  8
0
  6
Continuous
 62
     7
100
AcDbCircle
 10
140.9493140297154
 20
111.2297438241743
 30
0.0
 40
0.5000000000001843
100
AcDbArc
 50
150.9453959009384
 51
209.0546040990631
  0
ARC
  5
33A
330
1F
100
AcDbEntity
  8
0
  6
Continuous
 62
     7
100
AcDbCircle
 10
140.9493140297154
 20
114.8297438241743
 30
0.0
 40
0.5000000000001912
100
AcDbArc
 50
150.9453959009369
 51
209.0546040990631
  0
ARC
  5
33B
330
1F
100
AcDbEntity
  8
0
  6
Continuous
 62
     7
100
AcDbCircle
 10
140.9493140297154
 20
113.0297438241743
 30
0.0
 40
0.5000000000001912
100
AcDbArc
 50
150.9453959009369
 51
209.0546040990631
  0
ARC
  5
33C
330
1F
100
AcDbEntity
  8
0
  6
Continuous
 62
     7
100
AcDbCircle
 10
140.3053551251612
 20
113.9297438241743
 30
0.0
 40
0.4999999999999179
100
AcDbArc
 50
330.9453959009196
 51
29.05460409908046
  0
ARC
  5
33D
330
1F
100
AcDbEntity
  8
0
  6
Continuous
 62
     7
100
AcDbCircle
 10
140.3053551251612
 20
112.1297438241743
 30
0.0
 40
0.4999999999999179
100
AcDbArc
 50
330.9453959009196
 51
29.05460409908046
  0
ARC
  5
33E
330
1F
100
AcDbEntity
  8
0
  6
Continuous
 62
     7
100
AcDbCircle
 10
137.8773345774383
 20
89.2297438241743
 30
0.0
 40
3.0
100
AcDbArc
 50
270.0
 51
0.0
  0
ARC
  5
33F
330
1F
100
AcDbEntity
  8
0
  6
Continuous
 62
     7
100
AcDbCircle
 10
61.40535512516112
 20
114.8297438241743
 30
0.0
 40
0.5000000000000904
100
AcDbArc
 50
330.9453959009174
 51
29.05460409907256
  0
ARC
  5
340
330
1F
100
AcDbEntity
  8
0
  6
Continuous
 62
     7
100
AcDbCircle
 10
61.40535512516112
 20
113.0297438241743
 30
0.0
 40
0.5000000000000904
100
AcDbArc
 50
330.9453959009174
 51
29.05460409907256
  0
ARC
  5
341
330
1F
100
AcDbEntity
  8
0
  6
Continuous
 62
     7
100
AcDbCircle
 10
62.04931402971522
 20
110.3297438241743
 30
0.0
 40
0.4999999999999427
100
AcDbArc
 50
150.9453959009211
 51
209.0546040990888
  0
ARC
  5
342
330
1F
100
AcDbEntity
  8
0
  6
Continuous
 62
     7
100
AcDbCircle
 10
61.40535512516112
 20
109.4297438241743
 30
0.0
 40
0.5000000000000421
100
AcDbArc
 50
330.9453959009275
 51
29.05460409907256
  0
ARC
  5
343
330
1F
100
AcDbEntity
  8
0
  6
Continuous
 62
     7
100
AcDbCircle
 10
61.97733457743823
 20
108.4001808100756
 30
0.0
 40
0.5000000000000421
100
AcDbArc
 50
150.9453959009275
 51
180.0
  0
ARC
  5
344
330
1F
100
AcDbEntity
  8
0
  6
Continuous
 62
     7
100
AcDbCircle
 10
62.04931402971522
 20
113.9297438241743
 30
0.0
 40
0.4999999999999427
100
AcDbArc
 50
150.9453959009211
 51
209.0546040990789
  0
ARC
  5
345
330
1F
100
AcDbEntity
  8
0
  6
Continuous
 62
     7
100
AcDbCircle
 10
62.04931402971522
 20
112.1297438241743
 30
0.0
 40
0.4999999999999427
100
AcDbArc
 50
150.9453959009211
 51
209.0546040990888
  0
ARC
  5
346
330
1F
100
AcDbEntity
  8
0
  6
Continuous
 62
     7
100
AcDbCircle
 10
64.47733457743823
 20
89.22974382417428
 30
0.0
 40
3.0
100
AcDbArc
 50
180.0
 51
270.0
  0
ARC
  5
347
330
1F
100
AcDbEntity
  8
0
  6
Continuous
 62
     7
100
AcDbCircle
 10
61.40535512516112
 20
111.2297438241743
 30
0.0
 40
0.5000000000000421
100
AcDbArc
 50
330.9453959009275
 51
29.05460409907113
  0
ARC
  5
348
330
1F
100
AcDbEntity
  8
0
  6
Continuous
 62
     7
100
AcDbCircle
 10
88.17733457743822
 20
85.22974382417428
 30
0.0
 40
1.0
100
AcDbArc
 50
0.0
 51
90.0
  0
ARC
  5
349
330
1F
100
AcDbEntity
  8
0
  6
Continuous
 62
     7
100
AcDbCircle
 10
90.17733457743822
 20
69.72974382417428
 30
0.0
 40
1.0
100
AcDbArc
 50
180.0
 51
270.0
  0
ARC
  5
34A
330
1F
100
AcDbEntity
  8
0
  6
Continuous
 62
     7
100
AcDbCircle
 10
236.7773347032662
 20
89.22974382417425
 30
0.0
 40
3.0
100
AcDbArc
 50
270.0
 51
288.9655749886847
  0
ARC
  5
34B
330
1F
100
AcDbEntity
  8
0
  6
Continuous
 62
     7
100
AcDbCircle
 10
239.2773347032662
 20
108.4001808100756
 30
0.0
 40
0.5
100
AcDbArc
 50
0.0
 51
29.05460409908046
  0
ARC
  5
34C
330
1F
100
AcDbEntity
  8
0
  6
Continuous
 62
     7
100
AcDbCircle
 10
239.205355250989
 20
110.3297438241743
 30
0.0
 40
0.5000000000001167
100
AcDbArc
 50
330.9453959009322
 51
29.05460409906782
  0
ARC
  5
34D
330
1F
100
AcDbEntity
  8
0
  6
Continuous
 62
     7
100
AcDbCircle
 10
239.8493141555431
 20
109.4297438241743
 30
0.0
 40
0.4999999999999427
100
AcDbArc
 50
150.9453959009211
 51
209.0546040990789
  0
ARC
  5
34E
330
1F
100
AcDbEntity
  8
0
  6
Continuous
 62
     7
100
AcDbCircle
 10
239.8493141555431
 20
111.2297438241743
 30
0.0
 40
0.4999999999999358
100
AcDbArc
 50
150.9453959009225
 51
209.0546040990789
  0
ARC
  5
34F
330
1F
100
AcDbEntity
  8
0
  6
Continuous
 62
     7
100
AcDbCircle
 10
239.205355250989
 20
113.9297438241743
 30
0.0
 40
0.5000000000001167
100
AcDbArc
 50
330.9453959009322
 51
29.05460409906782
  0
ARC
  5
350
330
1F
100
AcDbEntity
  8
0
  6
Continuous
 62
     7
100
AcDbCircle
 10
239.205355250989
 20
112.1297438241743
 30
0.0
 40
0.5000000000001167
100
AcDbArc
 50
330.9453959009322
 51
29.05460409906782
  0
ARC
  5
351
330
1F
100
AcDbEntity
  8
0
  6
Continuous
 62
     7
100
AcDbCircle
 10
239.8493141555431
 20
114.8297438241743
 30
0.0
 40
0.4999999999999427
100
AcDbArc
 50
150.9453959009211
 51
209.0546040990789
  0
ARC
  5
352
330
1F
100
AcDbEntity
  8
0
  6
Continuous
 62
     7
100
AcDbCircle
 10
239.8493141555431
 20
113.0297438241743
 30
0.0
 40
0.4999999999999427
100
AcDbArc
 50
150.9453959009211
 51
209.0546040990789
  0
ARC
  5
353
330
1F
100
AcDbEntity
  8
0
  6
Continuous
 62
     7
100
AcDbCircle
 10
236.7773347032662
 20
89.22974382417425
 30
0.0
 40
3.000000000000032
100
AcDbArc
 50
288.9655749886847
 51
0.0
  0
ARC
  5
354
330
1F
100
AcDbEntity
  8
0
  6
Continuous
 62
     7
100
AcDbCircle
 10
210.9493141555432
 20
113.9297438241743
 30
0.0
 40
0.5000000000000918
100
AcDbArc
 50
150.9453959009306
 51
209.0546040990694
  0
ARC
  5
355
330
1F
100
AcDbEntity
  8
0
  6
Continuous
 62
     7
100
AcDbCircle
 10
210.9493141555432
 20
110.3297438241743
 30
0.0
 40
0.5000000000000918
100
AcDbArc
 50
150.9453959009306
 51
209.0546040990694
  0
ARC
  5
356
330
1F
100
AcDbEntity
  8
0
  6
Continuous
 62
     7
100
AcDbCircle
 10
210.9493141555432
 20
112.1297438241743
 30
0.0
 40
0.5000000000000918
100
AcDbArc
 50
150.9453959009306
 51
209.0546040990694
  0
ARC
  5
357
330
1F
100
AcDbEntity
  8
0
  6
Continuous
 62
     7
100
AcDbCircle
 10
210.3053552509891
 20
109.4297438241743
 30
0.0
 40
0.4999999999999427
100
AcDbArc
 50
330.9453959009211
 51
29.05460409907889
  0
ARC
  5
358
330
1F
100
AcDbEntity
  8
0
  6
Continuous
 62
     7
100
AcDbCircle
 10
210.8773347032661
 20
108.4001808100756
 30
0.0
 40
0.4999999999999179
100
AcDbArc
 50
150.9453959009195
 51
180.0
  0
ARC
  5
359
330
1F
100
AcDbEntity
  8
0
  6
Continuous
 62
     7
100
AcDbCircle
 10
210.3053552509891
 20
111.2297438241743
 30
0.0
 40
0.4999999999999427
100
AcDbArc
 50
330.9453959009211
 51
29.05460409907746
  0
ARC
  5
35A
330
1F
100
AcDbEntity
  8
0
  6
Continuous
 62
     7
100
AcDbCircle
 10
210.3053552509891
 20
113.0297438241743
 30
0.0
 40
0.4999999999999427
100
AcDbArc
 50
330.9453959009211
 51
29.05460409907889
  0
ARC
  5
35B
330
1F
100
AcDbEntity
  8
0
  6
Continuous
 62
     7
100
AcDbCircle
 10
210.3053552509891
 20
114.8297438241743
 30
0.0
 40
0.4999999999999427
100
AcDbArc
 50
330.9453959009211
 51
29.05460409907889
  0
ARC
  5
35C
330
1F
100
AcDbEntity
  8
0
  6
Continuous
 62
     7
100
AcDbCircle
 10
236.0773347032661
 20
69.72974382417425
 30
0.0
 40
1.0
100
AcDbArc
 50
270.0
 51
0.0
  0
ARC
  5
35D
330
1F
100
AcDbEntity
  8
0
  6
Continuous
 62
     7
100
AcDbCircle
 10
238.0773346884243
 20
85.44688777096965
 30
0.0
 40
0.9999999851582219
100
AcDbArc
 50
109.4620653254118
 51
180.0000006131336
  0
ARC
  5
35E
330
1F
100
AcDbEntity
  8
0
  6
Continuous
 62
     7
100
AcDbCircle
 10
213.3773347032661
 20
89.22974382417425
 30
0.0
 40
3.0
100
AcDbArc
 50
180.0
 51
251.0344250113145
  0
ARC
  5
35F
330
1F
100
AcDbEntity
  8
0
  6
Continuous
 62
     7
100
AcDbCircle
 10
247.0773350575345
 20
138.2297438241695
 30
0.0
 40
7.000000000000131
100
AcDbArc
 50
73.99999999999247
 51
81.99999999999324
  0
ARC
  5
360
330
1F
100
AcDbEntity
  8
0
  6
Continuous
 62
     7
100
AcDbCircle
 10
247.0773350575345
 20
138.2297438241695
 30
0.0
 40
6.90000000000016
100
AcDbArc
 50
81.99999999999379
 51
83.42611475025369
  0
ARC
  5
361
330
1F
100
AcDbEntity
  8
0
  6
Continuous
 62
     7
100
AcDbCircle
 10
247.0773350575325
 20
138.2297438241703
 30
0.0
 40
6.90000000000023
100
AcDbArc
 50
65.9999999999765
 51
73.99999999997547
  0
ARC
  5
362
330
1F
100
AcDbEntity
  8
0
  6
Continuous
 62
     7
100
AcDbCircle
 10
247.0773350575345
 20
138.2297438241695
 30
0.0
 40
7.000000000000015
100
AcDbArc
 50
57.9999999999801
 51
65.99999999999335
  0
ARC
  5
363
330
1F
100
AcDbEntity
  8
0
  6
Continuous
 62
     7
100
AcDbCircle
 10
247.0773350575345
 20
138.2297438241695
 30
0.0
 40
6.900000000000149
100
AcDbArc
 50
49.99999999999136
 51
57.99999999999296
  0
ARC
  5
364
330
1F
100
AcDbEntity
  8
0
  6
Continuous
 62
     7
100
AcDbCircle
 10
247.0773350575345
 20
138.2297438241695
 30
0.0
 40
6.900000000000121
100
AcDbArc
 50
33.99999999999375
 51
41.99999999999347
  0
ARC
  5
365
330
1F
100
AcDbEntity
  8
0
  6
Continuous
 62
     7
100
AcDbCircle
 10
247.0773350575345
 20
138.2297438241695
 30
0.0
 40
7.000000000000016
100
AcDbArc
 50
25.99999999999418
 51
33.99999999999454
  0
ARC
  5
366
330
1F
100
AcDbEntity
  8
0
  6
Continuous
 62
     7
100
AcDbCircle
 10
247.0773350575345
 20
138.2297438241695
 30
0.0
 40
6.900000000000227
100
AcDbArc
 50
17.9999999999938
 51
25.99999999999477
  0
ARC
  5
367
330
1F
100
AcDbEntity
  8
0
  6
Continuous
 62
     7
100
AcDbCircle
 10
247.0773350575345
 20
138.2297438241695
 30
0.0
 40
7.000000000000026
100
AcDbArc
 50
9.99999999999401
 51
17.99999999999421
  0
ARC
  5
368
330
1F
100
AcDbEntity
  8
0
  6
Continuous
 62
     7
100
AcDbCircle
 10
247.0773350575345
 20
138.2297438241695
 30
0.0
 40
7.000000000000063
100
AcDbArc
 50
353.9999999999941
 51
1.99999999999408
  0
ARC
  5
369
330
1F
100
AcDbEntity
  8
0
  6
Continuous
 62
     7
100
AcDbCircle
 10
247.0773350575345
 20
138.2297438241695
 30
0.0
 40
6.900000000000111
100
AcDbArc
 50
1.99999999999455
 51
9.99999999999391
  0
ARC
  5
36A
330
1F
100
AcDbEntity
  8
0
  6
Continuous
 62
     7
100
AcDbCircle
 10
247.0773350575345
 20
138.2297438241695
 30
0.0
 40
7.000000000000091
100
AcDbArc
 50
321.9999999999942
 51
329.9999999999943
  0
ARC
  5
36B
330
1F
100
AcDbEntity
  8
0
  6
Continuous
 62
     7
100
AcDbCircle
 10
247.0773350575345
 20
138.2297438241695
 30
0.0
 40
6.900000000000075
100
AcDbArc
 50
281.9999999999936
 51
289.9999999999937
  0
ARC
  5
36C
330
1F
100
AcDbEntity
  8
0
  6
Continuous
 62
     7
100
AcDbCircle
 10
247.0773350575345
 20
138.2297438241695
 30
0.0
 40
6.999999999999982
100
AcDbArc
 50
273.9999999999937
 51
281.9999999999941
  0
ARC
  5
36D
330
1F
100
AcDbEntity
  8
0
  6
Continuous
 62
     7
100
AcDbCircle
 10
247.0773350575345
 20
138.2297438241695
 30
0.0
 40
6.899999999999963
100
AcDbArc
 50
273.7809280824267
 51
273.9999999999945
  0
ARC
  5
36E
330
1F
100
AcDbEntity
  8
0
  6
Continuous
 62
     7
100
AcDbCircle
 10
247.0773350575345
 20
138.2297438241695
 30
0.0
 40
6.900000000000099
100
AcDbArc
 50
313.9999999999935
 51
321.9999999999938
  0
ARC
  5
36F
330
1F
100
AcDbEntity
  8
0
  6
Continuous
 62
     7
100
AcDbCircle
 10
247.0773350575345
 20
138.2297438241695
 30
0.0
 40
7.000000000000095
100
AcDbArc
 50
289.9999999999938
 51
297.9999999999936
  0
ARC
  5
370
330
1F
100
AcDbEntity
  8
0
  6
Continuous
 62
     7
100
AcDbCircle
 10
247.0773350575345
 20
138.2297438241695
 30
0.0
 40
6.900000000000027
100
AcDbArc
 50
329.9999999999943
 51
337.9999999999939
  0
ARC
  5
371
330
1F
100
AcDbEntity
  8
0
  6
Continuous
 62
     7
100
AcDbCircle
 10
247.0773350575345
 20
138.2297438241695
 30
0.0
 40
6.900000000000108
100
AcDbArc
 50
345.9999999999943
 51
353.9999999999941
  0
ARC
  5
372
330
1F
100
AcDbEntity
  8
0
  6
Continuous
 62
     7
100
AcDbCircle
 10
247.0773350575345
 20
138.2297438241695
 30
0.0
 40
7.000000000000074
100
AcDbArc
 50
337.9999999999939
 51
345.9999999999938
  0
ARC
  5
373
330
1F
100
AcDbEntity
  8
0
  6
Continuous
 62
     7
100
AcDbCircle
 10
247.0773350575345
 20
138.2297438241695
 30
0.0
 40
6.899999999999967
100
AcDbArc
 50
297.9999999999942
 51
305.999999999994
  0
ARC
  5
374
330
1F
100
AcDbEntity
  8
0
  6
Continuous
 62
     7
100
AcDbCircle
 10
247.0773350575345
 20
138.2297438241695
 30
0.0
 40
6.999999999999967
100
AcDbArc
 50
305.9999999999931
 51
313.9999999999935
  0
ARC
  5
375
330
1F
100
AcDbEntity
  8
0
  6
Continuous
 62
     7
100
AcDbCircle
 10
247.0773350575345
 20
138.2297438241695
 30
0.0
 40
6.899999999999892
100
AcDbArc
 50
269.9999999999908
 51
273.7809280824267
  0
ARC
  5
376
330
1F
100
AcDbEntity
  8
0
  6
Continuous
 62
     7
100
AcDbCircle
 10
247.0773350575345
 20
138.2297438241695
 30
0.0
 40
7.000000000000139
100
AcDbArc
 50
41.99999999999338
 51
49.99999999999311
  0
ARC
  5
377
330
1F
100
AcDbEntity
  8
0
  6
Continuous
 62
     7
100
AcDbCircle
 10
223.2863431721467
 20
137.8297438241743
 30
0.0
 40
0.5
100
AcDbArc
 50
270.0
 51
0.0
  0
ARC
  5
378
330
1F
100
AcDbEntity
  8
0
  6
Continuous
 62
     7
100
AcDbCircle
 10
227.7863431721467
 20
138.0297438241717
 30
0.0
 40
4.0
100
AcDbArc
 50
90.0
 51
180.0
  0
ARC
  5
379
330
1F
100
AcDbEntity
  8
0
  6
Continuous
 62
     7
100
AcDbCircle
 10
225.0773350575333
 20
119.5297438241737
 30
0.0
 40
6.700000000000275
100
AcDbArc
 50
282.9370588708122
 51
313.0000000000001
  0
ARC
  5
37A
330
1F
100
AcDbEntity
  8
0
  6
Continuous
 62
     7
100
AcDbCircle
 10
225.0773350575333
 20
119.5297438241737
 30
0.0
 40
4.80000000000005
100
AcDbArc
 50
60.10281278598486
 51
340.6541490107037
  0
ARC
  5
37B
330
1F
100
AcDbEntity
  8
0
  6
Continuous
 62
     7
100
AcDbCircle
 10
228.4667622892275
 20
125.4248081190776
 30
0.0
 40
2.00000000000001
100
AcDbArc
 50
240.1028127859843
 51
312.9999999999889
  0
ARC
  5
37C
330
1F
100
AcDbEntity
  8
0
  6
Continuous
 62
     7
100
AcDbCircle
 10
225.077335057535
 20
119.5297438241706
 30
0.0
 40
6.699999999996876
100
AcDbArc
 50
133.0000000000433
 51
282.9370588708039
  0
ARC
  5
37D
330
1F
100
AcDbEntity
  8
0
  6
Continuous
 62
     7
100
AcDbCircle
 10
230.5773350575334
 20
133.2297438241689
 30
0.0
 40
5.5
100
AcDbArc
 50
0.0
 51
90.0
  0
ARC
  5
37E
330
1F
100
AcDbEntity
  8
0
  6
Continuous
 62
     7
100
AcDbCircle
 10
231.4933809116846
 20
117.2771107876084
 30
0.0
 40
2.000000000000006
100
AcDbArc
 50
132.9999999999805
 51
160.654149010702
  0
ARC
  5
37F
330
1F
100
AcDbEntity
  8
0
  6
Continuous
 62
     7
100
AcDbCircle
 10
225.0773350575354
 20
135.8297438241743
 30
0.0
 40
1.5
100
AcDbArc
 50
0.0
 51
90.0
  0
ARC
  5
380
330
1F
100
AcDbEntity
  8
0
  6
Continuous
 62
     7
100
AcDbCircle
 10
223.0773350575357
 20
141.4297438241748
 30
0.0
 40
4.499999999999964
100
AcDbArc
 50
203.5781784785145
 51
227.4649206658568
  0
ARC
  5
381
330
1F
100
AcDbEntity
  8
0
  6
Continuous
 62
     7
100
AcDbCircle
 10
222.6190774880412
 20
141.2297438241723
 30
0.0
 40
4.0
100
AcDbArc
 50
90.0
 51
203.5781784785142
  0
ARC
  5
382
330
1F
100
AcDbEntity
  8
0
  6
Continuous
 62
     7
100
AcDbCircle
 10
222.0632728391465
 20
140.3244484712326
 30
0.0
 40
2.999999999999957
100
AcDbArc
 50
227.4649206658564
 51
266.5952254413314
  0
ARC
  5
383
330
1F
100
AcDbEntity
  8
0
  6
Continuous
 62
     7
100
AcDbCircle
 10
227.5773350575354
 20
137.7297438241689
 30
0.0
 40
1.0
100
AcDbArc
 50
90.0
 51
180.0
  0
ARC
  5
384
330
1F
100
AcDbEntity
  8
0
  6
Continuous
 62
     7
100
AcDbCircle
 10
229.9773350575334
 20
131.9297438241703
 30
0.0
 40
10.1
100
AcDbArc
 50
346.5475259253991
 51
90.0
  0
ARC
  5
385
330
1F
100
AcDbEntity
  8
0
  6
Continuous
 62
     7
100
AcDbCircle
 10
231.0773350575334
 20
131.9611889922779
 30
0.0
 40
4.999999999999991
100
AcDbArc
 50
312.9999999999939
 51
0.0
  0
ARC
  5
386
330
1F
100
AcDbEntity
  8
0
  6
Continuous
 62
     7
100
AcDbCircle
 10
232.0197178300857
 20
131.4412025153929
 30
0.0
 40
7.999999999999833
100
AcDbArc
 50
312.9999999999932
 51
346.5475259253989
  0
ARC
  5
387
330
1F
100
AcDbEntity
  8
0
  6
Continuous
 62
     7
100
AcDbCircle
 10
212.0773347181071
 20
85.44688777096917
 30
0.0
 40
0.9999999851590077
100
AcDbArc
 50
359.999999386894
 51
70.53793467340432
  0
CIRCLE
  5
388
330
1F
100
AcDbEntity
  8
0
  6
Continuous
 62
     7
100
AcDbCircle
 10
225.0773350575333
 20
119.5297438241737
 30
0.0
 40
2.400000000000006
  0
CIRCLE
  5
389
330
1F
100
AcDbEntity
  8
0
  6
Continuous
 62
     7
100
AcDbCircle
 10
225.0773350575333
 20
119.5297438241737
 30
0.0
 40
2.499999999999909
  0
SPLINE
  5
38A
330
1F
100
AcDbEntity
  8
0
  6
Continuous
 62
     7
100
AcDbSpline
210
0.0
220
0.0
230
1.0
 70
     8
 71
     3
 72
     9
 73
     5
 74
     3
 42
0.000000001
 43
0.0000000001
 44
0.00000001
 40
0.0
 40
0.0
 40
0.0
 40
0.0
 40
0.5780976035451312
 40
1.133702377970461
 40
1.133702377970461
 40
1.133702377970461
 40
1.133702377970461
 10
133.5154140229997
 20
134.7797438241709
 30
0.0
 10
133.3815928481798
 20
134.9187240334826
 30
0.0
 10
133.1191572758533
 20
135.1912769734162
 30
0.0
 10
132.8945672325191
 20
135.495744769375
 30
0.0
 10
132.784500168936
 20
135.6449583296009
 30
0.0
 11
133.5154140229997
 21
134.7797438241709
 31
0.0
 11
133.1237910432878
 21
135.2049829116159
 31
0.0
 11
132.784500168936
 21
135.6449583296009
 31
0.0
  0
SPLINE
  5
38B
330
1F
100
AcDbEntity
  8
0
  6
Continuous
 62
     7
100
AcDbSpline
210
0.0
220
0.0
230
1.0
 70
     8
 71
     3
 72
     9
 73
     5
 74
     3
 42
0.000000001
 43
0.0000000001
 44
0.00000001
 40
0.0
 40
0.0
 40
0.0
 40
0.0
 40
0.8295939446464505
 40
1.667312548945903
 40
1.667312548945903
 40
1.667312548945903
 40
1.667312548945903
 10
140.5234886898271
 20
144.9585756957396
 30
0.0
 10
140.7968505629148
 20
145.0008106694442
 30
0.0
 10
141.3462514915715
 20
145.0856942268475
 30
0.0
 10
141.89987115042
 20
145.136229534554
 30
0.0
 10
142.1780298496317
 20
145.1616203053624
 30
0.0
 11
140.5234886898271
 21
144.9585756957396
 31
0.0
 11
141.344618739354
 21
145.0767770286522
 31
0.0
 11
142.1780298496317
 21
145.1616203053624
 31
0.0
  0
SPLINE
  5
38C
330
1F
100
AcDbEntity
  8
0
  6
Continuous
 62
     7
100
AcDbSpline
210
0.0
220
0.0
230
1.0
 70
     8
 71
     3
 72
     9
 73
     5
 74
     3
 42
0.000000001
 43
0.0000000001
 44
0.00000001
 40
0.0
 40
0.0
 40
0.0
 40
0.0
 40
0.5427464079854114
 40
1.067148448402015
 40
1.067148448402015
 40
1.067148448402015
 40
1.067148448402015
 10
132.6239072145291
 20
135.6074976702593
 30
0.0
 10
132.5233567384495
 20
135.7582540937966
 30
0.0
 10
132.3256543241304
 20
136.0546715120092
 30
0.0
 10
132.1751581210258
 20
136.3776012670788
 30
0.0
 10
132.1012035490609
 20
136.536290554973
 30
0.0
 11
132.6239072145291
 21
135.6074976702593
 31
0.0
 11
132.3344665744556
 21
136.0666248637532
 31
0.0
 11
132.1012035490609
 21
136.536290554973
 31
0.0
  0
SPLINE
  5
38D
330
1F
100
AcDbEntity
  8
0
  6
Continuous
 62
     7
100
AcDbSpline
210
0.0
220
0.0
230
1.0
 70
     8
 71
     3
 72
    21
 73
    17
 74
    15
 42
0.000000001
 43
0.0000000001
 44
0.00000001
 40
0.0
 40
0.0
 40
0.0
 40
0.0
 40
0.0678554184563831
 40
0.1296942100167531
 40
0.2727683809308623
 40
0.4325807032768262
 40
0.508297227726316
 40
0.5864980600434238
 40
0.662817860798021
 40
0.740748098320298
 40
0.8281400224549434
 40
0.930294651428452
 40
1.03241552436612
 40
1.120876628627434
 40
1.315335476529792
 40
1.501554279553266
 40
1.501554279553266
 40
1.501554279553266
 40
1.501554279553266
 10
84.00448740525042
 20
141.2297438241708
 30
0.0
 10
84.01955567158643
 20
141.2128519854649
 30
0.0
 10
84.04835613930932
 20
141.1805660919909
 30
0.0
 10
84.11613650411527
 20
141.1197651048678
 30
0.0
 10
84.21442448876996
 20
141.0477071169718
 30
0.0
 10
84.32420182616659
 20
140.9849628930875
 30
0.0
 10
84.41823867275613
 20
140.9391726282903
 30
0.0
 10
84.48855883534728
 20
140.9083757970397
 30
0.0
 10
84.56065858541176
 20
140.8799547269532
 30
0.0
 10
84.63660071435554
 20
140.8530614401189
 30
0.0
 10
84.7216781027241
 20
140.8263244785883
 30
0.0
 10
84.81553613096958
 20
140.8008667502878
 30
0.0
 10
84.9107166602609
 20
140.7792074709463
 30
0.0
 10
85.03688988065005
 20
140.7556883796359
 30
0.0
 10
85.19216780753766
 20
140.7347780334337
 30
0.0
 10
85.31908701443335
 20
140.7313974982382
 30
0.0
 10
85.38117298897464
 20
140.729743824171
 30
0.0
 11
84.00448740525042
 21
141.2297438241708
 31
0.0
 11
84.05063038517591
 21
141.1799926060003
 31
0.0
 11
84.09634208258143
 21
141.1383455457791
 31
0.0
 11
84.21129717028401
 21
141.0531660585771
 31
0.0
 11
84.34964674934508
 21
140.9731699829669
 31
0.0
 11
84.4177058438826
 21
140.9399893906921
 31
0.0
 11
84.48932123066709
 21
140.9085790971597
 31
0.0
 11
84.56031403331995
 21
140.8805659938375
 31
0.0
 11
84.63376668552911
 21
140.8545308289186
 31
0.0
 11
84.71713253893779
 21
140.8283109335159
 31
0.0
 11
84.81571775146392
 21
140.8015429646676
 31
0.0
 11
84.91529740762975
 21
140.7789030690161
 31
0.0
 11
85.00224690975608
 21
140.7626196062131
 31
0.0
 11
85.19513536410852
 21
140.7379561298281
 31
0.0
 11
85.38117298897464
 21
140.729743824171
 31
0.0
  0
SPLINE
  5
38E
330
1F
100
AcDbEntity
  8
0
  6
Continuous
 62
     7
100
AcDbSpline
210
0.0
220
0.0
230
1.0
 70
     8
 71
     3
 72
     9
 73
     5
 74
     3
 42
0.000000001
 43
0.0000000001
 44
0.00000001
 40
0.0
 40
0.0
 40
0.0
 40
0.0
 40
0.4959741038443298
 40
0.9774387736321637
 40
0.9774387736321637
 40
0.9774387736321637
 40
0.9774387736321637
 10
82.30185405878399
 20
142.7297438241711
 30
0.0
 10
82.43808021204005
 20
142.6359392480065
 30
0.0
 10
82.70654728985676
 20
142.4510742778648
 30
0.0
 10
82.95942212723541
 20
142.2454031795208
 30
0.0
 10
83.08398265980611
 20
142.1440941484662
 30
0.0
 11
82.30185405878399
 21
142.7297438241711
 31
0.0
 11
82.70651786526444
 21
142.4429729824302
 31
0.0
 11
83.08398265980611
 21
142.1440941484662
 31
0.0
  0
SPLINE
  5
38F
330
1F
100
AcDbEntity
  8
0
  6
Continuous
 62
     7
100
AcDbSpline
210
0.0
220
0.0
230
1.0
 70
     8
 71
     3
 72
     9
 73
     5
 74
     3
 42
0.000000001
 43
0.0000000001
 44
0.00000001
 40
0.0
 40
0.0
 40
0.0
 40
0.0
 40
0.8377186042995586
 40
1.667312548946093
 40
1.667312548946093
 40
1.667312548946093
 40
1.667312548946093
 10
60.27663837176397
 20
145.1616203053624
 30
0.0
 10
60.55479707097571
 20
145.1362295345541
 30
0.0
 10
61.1084167298243
 20
145.0856942268474
 30
0.0
 10
61.6578176584811
 20
145.0008106694441
 30
0.0
 10
61.93117953156877
 20
144.9585756957396
 30
0.0
 11
60.27663837176397
 21
145.1616203053624
 31
0.0
 11
61.11004948204175
 21
145.0767770286522
 31
0.0
 11
61.93117953156877
 21
144.9585756957396
 31
0.0
  0
SPLINE
  5
390
330
1F
100
AcDbEntity
  8
0
  6
Continuous
 62
     7
100
AcDbSpline
210
0.0
220
0.0
230
1.0
 70
     8
 71
     3
 72
     9
 73
     5
 74
     3
 42
0.000000001
 43
0.0000000001
 44
0.00000001
 40
0.0
 40
0.0
 40
0.0
 40
0.0
 40
0.8071893688660418
 40
1.601389564761343
 40
1.601389564761343
 40
1.601389564761343
 40
1.601389564761343
 10
61.88343774109467
 20
144.8624495261457
 30
0.0
 10
62.14849825340411
 20
144.8157422916977
 30
0.0
 10
62.67435395921876
 20
144.7230794091622
 30
0.0
 10
63.19300365170746
 20
144.5961549613945
 30
0.0
 10
63.45022506303621
 20
144.5332074819052
 30
0.0
 11
61.88343774109467
 21
144.8624495261457
 31
0.0
 11
62.67678842962336
 21
144.713622906973
 31
0.0
 11
63.45022506303621
 21
144.5332074819052
 31
0.0
  0
SPLINE
  5
391
330
1F
100
AcDbEntity
  8
0
  6
Continuous
 62
     7
100
AcDbSpline
210
0.0
220
0.0
230
1.0
 70
     8
 71
     3
 72
    19
 73
    15
 74
    13
 42
0.000000001
 43
0.0000000001
 44
0.00000001
 40
0.0
 40
0.0
 40
0.0
 40
0.0
 40
0.0433897898495921
 40
0.0774012161669318
 40
0.113190292379757
 40
0.1496872882282069
 40
0.1866893800577843
 40
0.218991803091495
 40
0.2585829930471056
 40
0.3042662420695073
 40
0.3632260655159228
 40
0.431937513743974
 40
0.5497172926674414
 40
0.6861782376723615
 40
0.6861782376723615
 40
0.6861782376723615
 40
0.6861782376723615
 10
82.3223112509562
 20
142.9136580686824
 30
0.0
 10
82.31379449442953
 20
142.9253689667305
 30
0.0
 10
82.29860181902768
 20
142.9462595488661
 30
0.0
 10
82.28090624013247
 20
142.9797152099337
 30
0.0
 10
82.26880293825582
 20
143.0131899026949
 30
0.0
 10
82.26398565147684
 20
143.0497184247214
 30
0.0
 10
82.27022278191774
 20
143.0851346389285
 30
0.0
 10
82.28778697225951
 20
143.1174587317088
 30
0.0
 10
82.31571576598287
 20
143.1456239026238
 30
0.0
 10
82.35672623796177
 20
143.1712815389701
 30
0.0
 10
82.41057809074671
 20
143.1929042227396
 30
0.0
 10
82.49001559473389
 20
143.2130957030976
 30
0.0
 10
82.59706268879994
 20
143.227271245746
 30
0.0
 10
82.681834019928
 20
143.2288802272348
 30
0.0
 10
82.72733411069771
 20
143.2297438241819
 30
0.0
 11
82.3223112509562
 21
142.9136580686824
 31
0.0
 11
82.29773270517548
 21
142.9494151607787
 31
0.0
 11
82.28188801603335
 21
142.9795103931869
 31
0.0
 11
82.2701200543779
 21
143.0133094037443
 31
0.0
 11
82.26587513021695
 21
143.0495586988922
 31
0.0
 11
82.27252166725721
 21
143.0859589522532
 31
0.0
 11
82.2877179045712
 21
143.1144637061436
 31
0.0
 11
82.31512885010974
 21
143.1430312143254
 31
0.0
 11
82.35347606053995
 21
143.1678596427958
 31
0.0
 11
82.40790256890351
 21
143.1905315681683
 31
0.0
 11
82.47433328630848
 21
143.208087853114
 31
0.0
 11
82.59097777969731
 21
143.2244016173894
 31
0.0
 11
82.72733411069771
 21
143.2297438241819
 31
0.0
  0
SPLINE
  5
392
330
1F
100
AcDbEntity
  8
0
  6
Continuous
 62
     7
100
AcDbSpline
210
0.0
220
0.0
230
1.0
 70
     8
 71
     3
 72
     9
 73
     5
 74
     3
 42
0.000000001
 43
0.0000000001
 44
0.00000001
 40
0.0
 40
0.0
 40
0.0
 40
0.0
 40
0.7902017137346459
 40
1.562735005242422
 40
1.562735005242422
 40
1.562735005242422
 40
1.562735005242422
 10
63.52067391614696
 20
144.6245620276695
 30
0.0
 10
63.77513851949017
 20
144.5561755330194
 30
0.0
 10
64.27837804917245
 20
144.4209316043213
 30
0.0
 10
64.77077091459584
 20
144.2503881460102
 30
0.0
 10
65.01418382532592
 20
144.1660804972661
 30
0.0
 11
63.52067391614696
 21
144.6245620276695
 31
0.0
 11
64.28129439402821
 21
144.4103769735916
 31
0.0
 11
65.01418382532592
 21
144.1660804972661
 31
0.0
  0
SPLINE
  5
393
330
1F
100
AcDbEntity
  8
0
  6
Continuous
 62
     7
100
AcDbSpline
210
0.0
220
0.0
230
1.0
 70
     8
 71
     3
 72
     9
 73
     5
 74
     3
 42
0.000000001
 43
0.0000000001
 44
0.00000001
 40
0.0
 40
0.0
 40
0.0
 40
0.0
 40
0.7088014560381606
 40
1.393721038269782
 40
1.393721038269782
 40
1.393721038269782
 40
1.393721038269782
 10
66.38263978756572
 20
143.592054926004
 30
0.0
 10
66.59401351793981
 20
143.4861955194271
 30
0.0
 10
67.00963908659858
 20
143.2780434434713
 30
0.0
 10
67.40507592217573
 20
143.0337243697363
 30
0.0
 10
67.59940636415723
 20
142.913658068683
 30
0.0
 11
66.38263978756572
 21
143.592054926004
 31
0.0
 11
67.01153933835505
 21
143.2651224260593
 31
0.0
 11
67.59940636415723
 21
142.913658068683
 31
0.0
  0
SPLINE
  5
394
330
1F
100
AcDbEntity
  8
0
  6
Continuous
 62
     7
100
AcDbSpline
210
0.0
220
0.0
230
1.0
 70
     8
 71
     3
 72
     9
 73
     5
 74
     3
 42
0.000000001
 43
0.0000000001
 44
0.00000001
 40
0.0
 40
0.0
 40
0.0
 40
0.0
 40
0.6508643296665761
 40
1.277143361971781
 40
1.277143361971781
 40
1.277143361971781
 40
1.277143361971781
 10
67.47068990464618
 20
142.8467450080471
 30
0.0
 10
67.6516852665128
 20
142.7268230466992
 30
0.0
 10
68.00683918547172
 20
142.4915089566618
 30
0.0
 10
68.3358623612386
 20
142.2208830261106
 30
0.0
 10
68.49720705803338
 20
142.0881748581191
 30
0.0
 11
67.47068990464618
 21
142.8467450080471
 31
0.0
 11
68.0068893663804
 21
142.4778080035111
 31
0.0
 11
68.49720705803338
 21
142.0881748581191
 31
0.0
  0
SPLINE
  5
395
330
1F
100
AcDbEntity
  8
0
  6
Continuous
 62
     7
100
AcDbSpline
210
0.0
220
0.0
230
1.0
 70
     8
 71
     3
 72
     9
 73
     5
 74
     3
 42
0.000000001
 43
0.0000000001
 44
0.00000001
 40
0.0
 40
0.0
 40
0.0
 40
0.0
 40
0.5556047735393158
 40
1.090597662203393
 40
1.090597662203393
 40
1.090597662203393
 40
1.090597662203393
 10
69.33087717913668
 20
141.2545047370156
 30
0.0
 10
69.44762459964839
 20
141.1103959834923
 30
0.0
 10
69.67678831636513
 20
140.8275246264806
 30
0.0
 10
69.8637565387735
 20
140.5151812117236
 30
0.0
 10
69.95547382733525
 20
140.3619610853579
 30
0.0
 11
69.33087717913668
 21
141.2545047370156
 31
0.0
 11
69.67016805139825
 21
140.8145293184931
 31
0.0
 11
69.95547382733525
 21
140.3619610853579
 31
0.0
  0
SPLINE
  5
396
330
1F
100
AcDbEntity
  8
0
  6
Continuous
 62
     7
100
AcDbSpline
210
0.0
220
0.0
230
1.0
 70
     8
 71
     3
 72
     9
 73
     5
 74
     3
 42
0.000000001
 43
0.0000000001
 44
0.00000001
 40
0.0
 40
0.0
 40
0.0
 40
0.0
 40
0.5244020397215656
 40
1.033677768955999
 40
1.033677768955999
 40
1.033677768955999
 40
1.033677768955999
 10
70.12020164804449
 20
140.3928627847956
 30
0.0
 10
70.20236018156453
 20
140.2382053596063
 30
0.0
 10
70.36430737799026
 20
139.9333515747151
 30
0.0
 10
70.47491776781663
 20
139.6063763097623
 30
0.0
 10
70.52941364573013
 20
139.4452810678393
 30
0.0
 11
70.12020164804449
 21
140.3928627847956
 31
0.0
 11
70.35346467120783
 21
139.9231970932063
 31
0.0
 11
70.52941364573013
 21
139.4452810678393
 31
0.0
  0
SPLINE
  5
397
330
1F
100
AcDbEntity
  8
0
  6
Continuous
 62
     7
100
AcDbSpline
210
0.0
220
0.0
230
1.0
 70
     8
 71
     3
 72
     9
 73
     5
 74
     3
 42
0.000000001
 43
0.0000000001
 44
0.00000001
 40
0.0
 40
0.0
 40
0.0
 40
0.0
 40
0.4814646697879388
 40
0.977438773632227
 40
0.977438773632227
 40
0.977438773632227
 40
0.977438773632227
 10
119.3706855615891
 20
142.1440941484662
 30
0.0
 10
119.4952460941599
 20
142.2454031795208
 30
0.0
 10
119.7481209315386
 20
142.4510742778647
 30
0.0
 10
120.0165880093553
 20
142.6359392480064
 30
0.0
 10
120.1528141626113
 20
142.7297438241711
 30
0.0
 11
119.3706855615891
 21
142.1440941484662
 31
0.0
 11
119.7481503561309
 21
142.4429729824301
 31
0.0
 11
120.1528141626113
 21
142.7297438241711
 31
0.0
  0
SPLINE
  5
398
330
1F
100
AcDbEntity
  8
0
  6
Continuous
 62
     7
100
AcDbSpline
210
0.0
220
0.0
230
1.0
 70
     8
 71
     3
 72
     9
 73
     5
 74
     3
 42
0.000000001
 43
0.0000000001
 44
0.00000001
 40
0.0
 40
0.0
 40
0.0
 40
0.0
 40
0.5864758306490728
 40
1.197046743818129
 40
1.197046743818129
 40
1.197046743818129
 40
1.197046743818129
 10
118.3153168088221
 20
141.2983418516945
 30
0.0
 10
118.445017695411
 20
141.4448700815864
 30
0.0
 10
118.7097481826913
 20
141.7439465706759
 30
0.0
 10
119.0086234623305
 20
142.0089336723305
 30
0.0
 10
119.1610691055936
 20
142.1440941484662
 30
0.0
 11
118.3153168088221
 21
141.2983418516945
 31
0.0
 11
118.7126154859417
 21
141.7297438238357
 31
0.0
 11
119.1610691055936
 21
142.1440941484662
 31
0.0
  0
SPLINE
  5
399
330
1F
100
AcDbEntity
  8
0
  6
Continuous
 62
     7
100
AcDbSpline
210
0.0
220
0.0
230
1.0
 70
     8
 71
     3
 72
     9
 73
     5
 74
     3
 42
0.000000001
 43
0.0000000001
 44
0.00000001
 40
0.0
 40
0.0
 40
0.0
 40
0.0
 40
0.6105709131690982
 40
1.197046743818354
 40
1.197046743818354
 40
1.197046743818354
 40
1.197046743818354
 10
83.2935991158015
 20
142.1440941484662
 30
0.0
 10
83.44604475906458
 20
142.0089336723305
 30
0.0
 10
83.74492003870381
 20
141.7439465706758
 30
0.0
 10
84.00965052598428
 20
141.4448700815864
 30
0.0
 10
84.13935141257332
 20
141.2983418516945
 30
0.0
 11
83.2935991158015
 21
142.1440941484662
 31
0.0
 11
83.74205273545346
 21
141.7297438238357
 31
0.0
 11
84.13935141257332
 21
141.2983418516945
 31
0.0
  0
SPLINE
  5
39A
330
1F
100
AcDbEntity
  8
0
  6
Continuous
 62
     7
100
AcDbSpline
210
0.0
220
0.0
230
1.0
 70
     8
 71
     3
 72
     9
 73
     5
 74
     3
 42
0.000000001
 43
0.0000000001
 44
0.00000001
 40
0.0
 40
0.0
 40
0.0
 40
0.0
 40
0.0161635733303884
 40
0.0323454911665242
 40
0.0323454911665242
 40
0.0323454911665242
 40
0.0323454911665242
 10
118.4501808161448
 20
141.229743824171
 30
0.0
 10
118.4536397257167
 20
141.2338748062213
 30
0.0
 10
118.4605614857952
 20
141.2421414458337
 30
0.0
 10
118.4675141785688
 20
141.2503820863773
 30
0.0
 10
118.4709925041952
 20
141.2545047370156
 30
0.0
 11
118.4501808161448
 21
141.229743824171
 31
0.0
 11
118.4605652769197
 21
141.2421302715077
 31
0.0
 11
118.4709925041952
 21
141.2545047370156
 31
0.0
  0
SPLINE
  5
39B
330
1F
100
AcDbEntity
  8
0
  6
Continuous
 62
     7
100
AcDbSpline
210
0.0
220
0.0
230
1.0
 70
     8
 71
     3
 72
     9
 73
     5
 74
     3
 42
0.000000001
 43
0.0000000001
 44
0.00000001
 40
0.0
 40
0.0
 40
0.0
 40
0.0
 40
0.0161819178361793
 40
0.0323454911666036
 40
0.0323454911666036
 40
0.0323454911666036
 40
0.0323454911666036
 10
83.98367571720013
 20
141.2545047370156
 30
0.0
 10
83.98715404282653
 20
141.2503820863773
 30
0.0
 10
83.9941067356002
 20
141.2421414458336
 30
0.0
 10
84.00102849567853
 20
141.2338748062211
 30
0.0
 10
84.00448740525042
 20
141.2297438241708
 30
0.0
 11
83.98367571720013
 21
141.2545047370156
 31
0.0
 11
83.99410294447561
 21
141.2421302715077
 31
0.0
 11
84.00448740525042
 21
141.2297438241708
 31
0.0
  0
SPLINE
  5
39C
330
1F
100
AcDbEntity
  8
0
  6
Continuous
 62
     7
100
AcDbSpline
210
0.0
220
0.0
230
1.0
 70
     8
 71
     3
 72
     9
 73
     5
 74
     3
 42
0.000000001
 43
0.0000000001
 44
0.00000001
 40
0.0
 40
0.0
 40
0.0
 40
0.0
 40
0.0904574483983374
 40
0.1836900492867526
 40
0.1836900492867526
 40
0.1836900492867526
 40
0.1836900492867526
 10
120.3034158055262
 20
142.8467450080471
 30
0.0
 10
120.2755066964104
 20
142.8581630345976
 30
0.0
 10
120.218832244631
 20
142.881349363811
 30
0.0
 10
120.1614709320147
 20
142.90278058053
 30
0.0
 10
120.13235697044
 20
142.9136580686828
 30
0.0
 11
120.3034158055262
 21
142.8467450080471
 31
0.0
 11
120.2195219086222
 21
142.8805734583747
 31
0.0
 11
120.13235697044
 21
142.9136580686828
 31
0.0
  0
SPLINE
  5
39D
330
1F
100
AcDbEntity
  8
0
  6
Continuous
 62
     7
100
AcDbSpline
210
0.0
220
0.0
230
1.0
 70
     8
 71
     3
 72
    11
 73
     7
 74
     5
 42
0.000000001
 43
0.0000000001
 44
0.00000001
 40
0.0
 40
0.0
 40
0.0
 40
0.0
 40
0.0521025911610111
 40
0.096713035926764
 40
0.1452953699885327
 40
0.1908881111177063
 40
0.1908881111177063
 40
0.1908881111177063
 40
0.1908881111177063
 10
82.30185405878399
 20
142.7297438241711
 30
0.0
 10
82.28751510611099
 20
142.7395468592554
 30
0.0
 10
82.26089909362625
 20
142.7577433035236
 30
0.0
 10
82.2220991033567
 20
142.7867432083315
 30
0.0
 10
82.18590075570556
 20
142.815585767337
 30
0.0
 10
82.16255481988138
 20
142.8365807530903
 30
0.0
 10
82.15125241585315
 20
142.8467450080335
 30
0.0
 11
82.30185405878399
 21
142.7297438241711
 31
0.0
 11
82.2590663594636
 21
142.7594741587505
 31
0.0
 11
82.2232925835184
 21
142.7861261524266
 31
0.0
 11
82.18544487491941
 21
142.8165858665598
 31
0.0
 11
82.15125241585315
 21
142.8467450080335
 31
0.0
  0
SPLINE
  5
39E
330
1F
100
AcDbEntity
  8
0
  6
Continuous
 62
     7
100
AcDbSpline
210
0.0
220
0.0
230
1.0
 70
     8
 71
     3
 72
     9
 73
     5
 74
     3
 42
0.000000001
 43
0.0000000001
 44
0.00000001
 40
0.0
 40
0.0
 40
0.0
 40
0.0
 40
0.0932326008906947
 40
0.183690049307312
 40
0.183690049307312
 40
0.183690049307312
 40
0.183690049307312
 10
82.3223112509562
 20
142.9136580686824
 30
0.0
 10
82.29319728938066
 20
142.9027805805297
 30
0.0
 10
82.23583597675756
 20
142.881349363809
 30
0.0
 10
82.17916152497368
 20
142.8581630345885
 30
0.0
 10
82.15125241585315
 20
142.8467450080335
 30
0.0
 11
82.3223112509562
 21
142.9136580686824
 31
0.0
 11
82.23514631277192
 21
142.8805734583733
 31
0.0
 11
82.15125241585315
 21
142.8467450080335
 31
0.0
  0
SPLINE
  5
39F
330
1F
100
AcDbEntity
  8
0
  6
Continuous
 62
     7
100
AcDbSpline
210
0.0
220
0.0
230
1.0
 70
     8
 71
     3
 72
     9
 73
     5
 74
     3
 42
0.000000001
 43
0.0000000001
 44
0.00000001
 40
0.0
 40
0.0
 40
0.0
 40
0.0
 40
0.7421540889408611
 40
1.463275664540647
 40
1.463275664540647
 40
1.463275664540647
 40
1.463275664540647
 10
64.92239911636966
 20
144.0812756876506
 30
0.0
 10
65.1541931402515
 20
143.9945340994928
 30
0.0
 10
65.6112121795812
 20
143.8235091456481
 30
0.0
 10
66.05339310897347
 20
143.6171479926864
 30
0.0
 10
66.27130570772044
 20
143.515450481692
 30
0.0
 11
64.92239911636966
 21
144.0812756876506
 31
0.0
 11
65.61396425200371
 21
143.8119610848236
 31
0.0
 11
66.27130570772044
 21
143.515450481692
 31
0.0
  0
SPLINE
  5
3A0
330
1F
100
AcDbEntity
  8
0
  6
Continuous
 62
     7
100
AcDbSpline
210
0.0
220
0.0
230
1.0
 70
     8
 71
     3
 72
     9
 73
     5
 74
     3
 42
0.000000001
 43
0.0000000001
 44
0.00000001
 40
0.0
 40
0.0
 40
0.0
 40
0.0
 40
0.5092757292342863
 40
1.033677768955883
 40
1.033677768955883
 40
1.033677768955883
 40
1.033677768955883
 10
131.9252545756658
 20
139.4452810678393
 30
0.0
 10
131.9797504535792
 20
139.6063763097623
 30
0.0
 10
132.0903608434053
 20
139.9333515747152
 30
0.0
 10
132.2523080398312
 20
140.2382053596062
 30
0.0
 10
132.3344665733513
 20
140.3928627847955
 30
0.0
 11
131.9252545756658
 21
139.4452810678393
 31
0.0
 11
132.1012035501878
 21
139.9231970932063
 31
0.0
 11
132.3344665733513
 21
140.3928627847955
 31
0.0
  0
SPLINE
  5
3A1
330
1F
100
AcDbEntity
  8
0
  6
Continuous
 62
     7
100
AcDbSpline
210
0.0
220
0.0
230
1.0
 70
     8
 71
     3
 72
     9
 73
     5
 74
     3
 42
0.000000001
 43
0.0000000001
 44
0.00000001
 40
0.0
 40
0.0
 40
0.0
 40
0.0
 40
0.490852857197503
 40
0.9928532183193477
 40
0.9928532183193477
 40
0.9928532183193477
 40
0.9928532183193477
 10
70.47493511731693
 20
137.5084974276239
 30
0.0
 10
70.44064408605364
 20
137.3481791302367
 30
0.0
 10
70.37128323851078
 20
137.0239016352546
 30
0.0
 10
70.2478261493026
 20
136.7161076502149
 30
0.0
 10
70.1854045227069
 20
136.5604827445331
 30
0.0
 11
70.47493511731693
 21
137.5084974276239
 31
0.0
 11
70.3588399382122
 21
137.0315713983838
 31
0.0
 11
70.1854045227069
 21
136.5604827445331
 31
0.0
  0
SPLINE
  5
3A2
330
1F
100
AcDbEntity
  8
0
  6
Continuous
 62
     7
100
AcDbSpline
210
0.0
220
0.0
230
1.0
 70
     8
 71
     3
 72
     9
 73
     5
 74
     3
 42
0.000000001
 43
0.0000000001
 44
0.00000001
 40
0.0
 40
0.0
 40
0.0
 40
0.0
 40
0.4885929532092917
 40
0.9795576264626286
 40
0.9795576264626286
 40
0.9795576264626286
 40
0.9795576264626286
 10
70.70622402150343
 20
138.4740403010882
 30
0.0
 10
70.7111077915473
 20
138.3108813067889
 30
0.0
 10
70.7208990184251
 20
137.9837713150251
 30
0.0
 10
70.67180021404968
 20
137.6602146254228
 30
0.0
 10
70.64719136251881
 20
137.4980445812972
 30
0.0
 11
70.70622402150343
 21
138.4740403010882
 31
0.0
 11
70.70622402034277
 21
137.9854473472766
 31
0.0
 11
70.64719136251881
 21
137.4980445812972
 31
0.0
  0
SPLINE
  5
3A3
330
1F
100
AcDbEntity
  8
0
  6
Continuous
 62
     7
100
AcDbSpline
210
0.0
220
0.0
230
1.0
 70
     8
 71
     3
 72
     9
 73
     5
 74
     3
 42
0.000000001
 43
0.0000000001
 44
0.00000001
 40
0.0
 40
0.0
 40
0.0
 40
0.0
 40
0.4908528568190929
 40
0.974803749211804
 40
0.974803749211804
 40
0.974803749211804
 40
0.974803749211804
 10
70.35883993933953
 20
139.4279162500727
 30
0.0
 10
70.40232833822056
 20
139.2698108341375
 30
0.0
 10
70.4886936187985
 20
138.9558231449303
 30
0.0
 10
70.51838425468682
 20
138.6315426089333
 30
0.0
 10
70.53312445260178
 20
138.470550351418
 30
0.0
 11
70.35883993933953
 21
139.4279162500727
 31
0.0
 11
70.47493511617846
 21
138.9509902206485
 31
0.0
 11
70.53312445260178
 21
138.470550351418
 31
0.0
  0
SPLINE
  5
3A4
330
1F
100
AcDbEntity
  8
0
  6
Continuous
 62
     7
100
AcDbSpline
210
0.0
220
0.0
230
1.0
 70
     8
 71
     3
 72
     9
 73
     5
 74
     3
 42
0.000000001
 43
0.0000000001
 44
0.00000001
 40
0.0
 40
0.0
 40
0.0
 40
0.0
 40
0.5244020404165717
 40
1.067148448402015
 40
1.067148448402015
 40
1.067148448402015
 40
1.067148448402015
 10
70.35346467233472
 20
136.536290554973
 30
0.0
 10
70.27951010036978
 20
136.3776012670789
 30
0.0
 10
70.12901389726522
 20
136.0546715120092
 30
0.0
 10
69.93131148294611
 20
135.7582540937966
 30
0.0
 10
69.83076100686651
 20
135.6074976702593
 30
0.0
 11
70.35346467233472
 21
136.536290554973
 31
0.0
 11
70.12020164694005
 21
136.0666248637533
 31
0.0
 11
69.83076100686651
 21
135.6074976702593
 31
0.0
  0
SPLINE
  5
3A5
330
1F
100
AcDbEntity
  8
0
  6
Continuous
 62
     7
100
AcDbSpline
210
0.0
220
0.0
230
1.0
 70
     8
 71
     3
 72
     9
 73
     5
 74
     3
 42
0.000000001
 43
0.0000000001
 44
0.00000001
 40
0.0
 40
0.0
 40
0.0
 40
0.0
 40
0.7942001958952393
 40
1.60138956476121
 40
1.60138956476121
 40
1.60138956476121
 40
1.60138956476121
 10
139.0044431583596
 20
144.5332074819052
 30
0.0
 10
139.2616645696883
 20
144.5961549613945
 30
0.0
 10
139.780314262177
 20
144.7230794091621
 30
0.0
 10
140.3061699679916
 20
144.8157422916977
 30
0.0
 10
140.571230480301
 20
144.8624495261457
 30
0.0
 11
139.0044431583596
 21
144.5332074819052
 31
0.0
 11
139.7778797917724
 21
144.713622906973
 31
0.0
 11
140.571230480301
 21
144.8624495261457
 31
0.0
  0
SPLINE
  5
3A6
330
1F
100
AcDbEntity
  8
0
  6
Continuous
 62
     7
100
AcDbSpline
210
0.0
220
0.0
230
1.0
 70
     8
 71
     3
 72
    17
 73
    13
 74
    11
 42
0.000000001
 43
0.0000000001
 44
0.00000001
 40
0.0
 40
0.0
 40
0.0
 40
0.0
 40
0.0621645926637141
 40
0.1293226529058763
 40
0.2723460453493924
 40
0.4321127817517472
 40
0.5821416548850525
 40
0.7403726564289799
 40
0.929174059017521
 40
1.120074491418458
 40
1.314881528073863
 40
1.501428883303149
 40
1.501428883303149
 40
1.501428883303149
 40
1.501428883303149
 10
118.4501808161448
 20
141.229743824171
 30
0.0
 10
118.4364131895255
 20
141.2142389033478
 30
0.0
 10
118.4077720167201
 20
141.1819836178408
 30
0.0
 10
118.3402701455061
 20
141.1210557039416
 30
0.0
 10
118.2405958308711
 20
141.0479376089734
 30
0.0
 10
118.1093385674261
 20
140.9728589712338
 30
0.0
 10
117.9675570736434
 20
140.9074162175069
 30
0.0
 10
117.8122257865678
 20
140.8493638135143
 30
0.0
 10
117.6398576513845
 20
140.7992066871616
 30
0.0
 10
117.452223873732
 20
140.7602655829626
 30
0.0
 10
117.2628393359436
 20
140.7348144893075
 30
0.0
 10
117.1356919804855
 20
140.731409458758
 30
0.0
 10
117.0734952324207
 20
140.7297438241708
 30
0.0
 11
118.4501808161448
 21
141.229743824171
 31
0.0
 11
118.408089557454
 21
141.1839970977929
 31
0.0
 11
118.3586106519314
 21
141.1385873668032
 31
0.0
 11
118.2437261268449
 21
141.0533979561104
 31
0.0
 11
118.1054391662574
 21
140.973384667329
 31
0.0
 11
117.969343382543
 21
140.9102451363379
 31
0.0
 11
117.8212070600956
 21
140.8546332685414
 31
0.0
 11
117.6399508354486
 21
140.8017924621352
 31
0.0
 11
117.453089145107
 21
140.7627324541405
 31
0.0
 11
117.2598604782723
 21
140.7379844591934
 31
0.0
 11
117.0734952324207
 21
140.7297438241708
 31
0.0
  0
SPLINE
  5
3A7
330
1F
100
AcDbEntity
  8
0
  6
Continuous
 62
     7
100
AcDbSpline
210
0.0
220
0.0
230
1.0
 70
     8
 71
     3
 72
     9
 73
     5
 74
     3
 42
0.000000001
 43
0.0000000001
 44
0.00000001
 40
0.0
 40
0.0
 40
0.0
 40
0.0
 40
0.6849195822316706
 40
1.393721038269957
 40
1.393721038269957
 40
1.393721038269957
 40
1.393721038269957
 10
134.8552618572385
 20
142.913658068683
 30
0.0
 10
135.04959229922
 20
143.0337243697363
 30
0.0
 10
135.4450291347973
 20
143.2780434434713
 30
0.0
 10
135.8606547034561
 20
143.4861955194272
 30
0.0
 10
136.0720284338302
 20
143.592054926004
 30
0.0
 11
134.8552618572385
 21
142.913658068683
 31
0.0
 11
135.4431288830407
 21
143.2651224260593
 31
0.0
 11
136.0720284338302
 21
143.592054926004
 31
0.0
  0
SPLINE
  5
3A8
330
1F
100
AcDbEntity
  8
0
  6
Continuous
 62
     7
100
AcDbSpline
210
0.0
220
0.0
230
1.0
 70
     8
 71
     3
 72
     9
 73
     5
 74
     3
 42
0.000000001
 43
0.0000000001
 44
0.00000001
 40
0.0
 40
0.0
 40
0.0
 40
0.0
 40
0.6262790323052052
 40
1.277143361971781
 40
1.277143361971781
 40
1.277143361971781
 40
1.277143361971781
 10
133.9574611633624
 20
142.0881748581191
 30
0.0
 10
134.1188058601572
 20
142.2208830261106
 30
0.0
 10
134.4478290359241
 20
142.4915089566617
 30
0.0
 10
134.802982954883
 20
142.7268230466992
 30
0.0
 10
134.9839783167496
 20
142.8467450080471
 30
0.0
 11
133.9574611633624
 21
142.0881748581191
 31
0.0
 11
134.4477788550154
 21
142.4778080035111
 31
0.0
 11
134.9839783167496
 21
142.8467450080471
 31
0.0
  0
SPLINE
  5
3A9
330
1F
100
AcDbEntity
  8
0
  6
Continuous
 62
     7
100
AcDbSpline
210
0.0
220
0.0
230
1.0
 70
     8
 71
     3
 72
     9
 73
     5
 74
     3
 42
0.000000001
 43
0.0000000001
 44
0.00000001
 40
0.0
 40
0.0
 40
0.0
 40
0.0
 40
0.7725332915078036
 40
1.562735005242367
 40
1.562735005242367
 40
1.562735005242367
 40
1.562735005242367
 10
137.4404843960699
 20
144.1660804972661
 30
0.0
 10
137.6838973068
 20
144.2503881460103
 30
0.0
 10
138.1762901722234
 20
144.4209316043212
 30
0.0
 10
138.6795297019057
 20
144.5561755330194
 30
0.0
 10
138.9339943052488
 20
144.6245620276695
 30
0.0
 11
137.4404843960699
 21
144.1660804972661
 31
0.0
 11
138.1733738273676
 21
144.4103769735916
 31
0.0
 11
138.9339943052488
 21
144.6245620276695
 31
0.0
  0
SPLINE
  5
3AA
330
1F
100
AcDbEntity
  8
0
  6
Continuous
 62
     7
100
AcDbSpline
210
0.0
220
0.0
230
1.0
 70
     8
 71
     3
 72
     9
 73
     5
 74
     3
 42
0.000000001
 43
0.0000000001
 44
0.00000001
 40
0.0
 40
0.0
 40
0.0
 40
0.0
 40
0.7211215755998195
 40
1.463275664540701
 40
1.463275664540701
 40
1.463275664540701
 40
1.463275664540701
 10
136.1833625136752
 20
143.5154504816921
 30
0.0
 10
136.4012751124222
 20
143.6171479926864
 30
0.0
 10
136.8434560418146
 20
143.823509145648
 30
0.0
 10
137.3004750811442
 20
143.9945340994927
 30
0.0
 10
137.5322691050261
 20
144.0812756876506
 30
0.0
 11
136.1833625136752
 21
143.5154504816921
 31
0.0
 11
136.8407039693921
 21
143.8119610848236
 31
0.0
 11
137.5322691050261
 21
144.0812756876506
 31
0.0
  0
SPLINE
  5
3AB
330
1F
100
AcDbEntity
  8
0
  6
Continuous
 62
     7
100
AcDbSpline
210
0.0
220
0.0
230
1.0
 70
     8
 71
     3
 72
     9
 73
     5
 74
     3
 42
0.000000001
 43
0.0000000001
 44
0.00000001
 40
0.0
 40
0.0
 40
0.0
 40
0.0
 40
0.5864758306491209
 40
1.197046743818198
 40
1.197046743818198
 40
1.197046743818198
 40
1.197046743818198
 10
132.968115346886
 20
141.2983418516945
 30
0.0
 10
133.097816233475
 20
141.4448700815865
 30
0.0
 10
133.3625467207553
 20
141.7439465706758
 30
0.0
 10
133.6614220003945
 20
142.0089336723306
 30
0.0
 10
133.8138676436576
 20
142.1440941484662
 30
0.0
 11
132.968115346886
 21
141.2983418516945
 31
0.0
 11
133.3654140240057
 21
141.7297438238357
 31
0.0
 11
133.8138676436576
 21
142.1440941484662
 31
0.0
  0
SPLINE
  5
3AC
330
1F
100
AcDbEntity
  8
0
  6
Continuous
 62
     7
100
AcDbSpline
210
0.0
220
0.0
230
1.0
 70
     8
 71
     3
 72
     9
 73
     5
 74
     3
 42
0.000000001
 43
0.0000000001
 44
0.00000001
 40
0.0
 40
0.0
 40
0.0
 40
0.0
 40
0.534992888664032
 40
1.090597662203278
 40
1.090597662203278
 40
1.090597662203278
 40
1.090597662203278
 10
132.4991943940605
 20
140.3619610853579
 30
0.0
 10
132.5909116826222
 20
140.5151812117237
 30
0.0
 10
132.7778799050306
 20
140.8275246264806
 30
0.0
 10
133.0070436217472
 20
141.1103959834922
 30
0.0
 10
133.1237910422589
 20
141.2545047370156
 30
0.0
 11
132.4991943940605
 21
140.3619610853579
 31
0.0
 11
132.7845001699974
 21
140.8145293184931
 31
0.0
 11
133.1237910422589
 21
141.2545047370156
 31
0.0
  0
SPLINE
  5
3AD
330
1F
100
AcDbEntity
  8
0
  6
Continuous
 62
     7
100
AcDbSpline
210
0.0
220
0.0
230
1.0
 70
     8
 71
     3
 72
    11
 73
     7
 74
     5
 42
0.000000001
 43
0.0000000001
 44
0.00000001
 40
0.0
 40
0.0
 40
0.0
 40
0.0
 40
0.0522035259103088
 40
0.0968867962914992
 40
0.145376702469261
 40
0.190888124040078
 40
0.190888124040078
 40
0.190888124040078
 40
0.190888124040078
 10
120.1528141626113
 20
142.7297438241711
 30
0.0
 10
120.1671807362445
 20
142.7395660910601
 30
0.0
 10
120.1938442774448
 20
142.7577956755146
 30
0.0
 10
120.2326630781685
 20
142.7868158119352
 30
0.0
 10
120.268831558741
 20
142.8156417096787
 30
0.0
 10
120.2921338418028
 20
142.8365985816223
 30
0.0
 10
120.3034158055262
 20
142.8467450080471
 30
0.0
 11
120.1528141626113
 21
142.7297438241711
 31
0.0
 11
120.1956837704109
 21
142.7595331653208
 31
0.0
 11
120.2315132228579
 21
142.7862323229761
 31
0.0
 11
120.2692855856259
 21
142.8166382378665
 31
0.0
 11
120.3034158055262
 21
142.8467450080471
 31
0.0
  0
SPLINE
  5
3AE
330
1F
100
AcDbEntity
  8
0
  6
Continuous
 62
     7
100
AcDbSpline
210
0.0
220
0.0
230
1.0
 70
     8
 71
     3
 72
    21
 73
    17
 74
    15
 42
0.000000001
 43
0.0000000001
 44
0.00000001
 40
0.0
 40
0.0
 40
0.0
 40
0.0
 40
0.0407434667704764
 40
0.0775134898244624
 40
0.1184254596287992
 40
0.1499496715269571
 40
0.1820827176902505
 40
0.2190604840712739
 40
0.2558176735973605
 40
0.3043086720672605
 40
0.3678549384733696
 40
0.4319183458003522
 40
0.4879646013134535
 40
0.5584733036014546
 40
0.6164004119420256
 40
0.6862657137250074
 40
0.6862657137250074
 40
0.6862657137250074
 40
0.6862657137250074
 10
120.13235697044
 20
142.9136580686828
 30
0.0
 10
120.1403669923804
 20
142.9246429499954
 30
0.0
 10
120.155605863539
 20
142.9455414342981
 30
0.0
 10
120.1742996801749
 20
142.9804466668659
 30
0.0
 10
120.1863955061488
 20
143.0150671405427
 30
0.0
 10
120.1901894855029
 20
143.050024364281
 30
0.0
 10
120.1849470392639
 20
143.0836386062214
 30
0.0
 10
120.1684029468684
 20
143.115561685904
 30
0.0
 10
120.1397220450569
 20
143.1450650288492
 30
0.0
 10
120.0974715491729
 20
143.171777009376
 30
0.0
 10
120.0425834949159
 20
143.1933210069077
 30
0.0
 10
119.9831325301071
 20
143.2083213704018
 30
0.0
 10
119.9204381737055
 20
143.2189058274965
 30
0.0
 10
119.8592358405013
 20
143.2252580207127
 30
0.0
 10
119.7932261322984
 20
143.2290925492119
 30
0.0
 10
119.7506247070758
 20
143.2295136246025
 30
0.0
 10
119.7273341106974
 20
143.2297438241711
 30
0.0
 11
120.13235697044
 21
142.9136580686828
 31
0.0
 11
120.1555573094782
 21
142.9471509782562
 31
0.0
 11
120.1728262520823
 21
142.979613545872
 31
0.0
 11
120.1857143139332
 21
143.0184424940077
 31
0.0
 11
120.1887877398752
 21
143.0498165285663
 31
0.0
 11
120.1836429903916
 21
143.0815350449606
 31
0.0
 11
120.1669149174825
 21
143.1145127177058
 31
0.0
 11
120.1416941335266
 21
143.1412522606535
 31
0.0
 11
120.1011644681785
 21
143.1678741191474
 31
0.0
 11
120.0423642276984
 21
143.1919710061848
 31
0.0
 11
119.980359916143
 21
143.2080826702225
 31
0.0
 11
119.925124069755
 21
143.2175792039161
 31
0.0
 11
119.8550183591779
 21
143.2251069244729
 31
0.0
 11
119.7971872490569
 21
143.2284404846832
 31
0.0
 11
119.7273341106974
 21
143.2297438241711
 31
0.0
  0
SPLINE
  5
3AF
330
1F
100
AcDbEntity
  8
0
  6
Continuous
 62
     7
100
AcDbSpline
210
0.0
220
0.0
230
1.0
 70
     8
 71
     3
 72
     9
 73
     5
 74
     3
 42
0.000000001
 43
0.0000000001
 44
0.00000001
 40
0.0
 40
0.0
 40
0.0
 40
0.0
 40
0.4909646732533641
 40
0.9795576264626559
 40
0.9795576264626559
 40
0.9795576264626559
 40
0.9795576264626559
 10
131.8074768588771
 20
137.4980445812972
 30
0.0
 10
131.7828680073461
 20
137.6602146254229
 30
0.0
 10
131.7337692029704
 20
137.9837713150251
 30
0.0
 10
131.7435604298484
 20
138.3108813067888
 30
0.0
 10
131.7484441998923
 20
138.4740403010882
 30
0.0
 11
131.8074768588771
 21
137.4980445812972
 31
0.0
 11
131.7484442010529
 21
137.9854473472766
 31
0.0
 11
131.7484441998923
 21
138.4740403010882
 31
0.0
  0
SPLINE
  5
3B0
330
1F
100
AcDbEntity
  8
0
  6
Continuous
 62
     7
100
AcDbSpline
210
0.0
220
0.0
230
1.0
 70
     8
 71
     3
 72
     9
 73
     5
 74
     3
 42
0.000000001
 43
0.0000000001
 44
0.00000001
 40
0.0
 40
0.0
 40
0.0
 40
0.0
 40
0.4839508923927163
 40
0.9748037492117856
 40
0.9748037492117856
 40
0.9748037492117856
 40
0.9748037492117856
 10
131.9215437687939
 20
138.470550351418
 30
0.0
 10
131.9362839667088
 20
138.6315426089333
 30
0.0
 10
131.9659746025972
 20
138.9558231449303
 30
0.0
 10
132.0523398831752
 20
139.2698108341375
 30
0.0
 10
132.0958282820561
 20
139.4279162500727
 30
0.0
 11
131.9215437687939
 21
138.470550351418
 31
0.0
 11
131.9797331052173
 21
138.9509902206485
 31
0.0
 11
132.0958282820561
 21
139.4279162500727
 31
0.0
  0
SPLINE
  5
3B1
330
1F
100
AcDbEntity
  8
0
  6
Continuous
 62
     7
100
AcDbSpline
210
0.0
220
0.0
230
1.0
 70
     8
 71
     3
 72
     9
 73
     5
 74
     3
 42
0.000000001
 43
0.0000000001
 44
0.00000001
 40
0.0
 40
0.0
 40
0.0
 40
0.0
 40
0.5020003611218398
 40
0.9928532183193663
 40
0.9928532183193663
 40
0.9928532183193663
 40
0.9928532183193663
 10
132.2692636986888
 20
136.5604827445331
 30
0.0
 10
132.2068420720931
 20
136.7161076502149
 30
0.0
 10
132.083384982885
 20
137.0239016352546
 30
0.0
 10
132.0140241353421
 20
137.3481791302367
 30
0.0
 10
131.9797331040787
 20
137.5084974276239
 30
0.0
 11
132.2692636986888
 21
136.5604827445331
 31
0.0
 11
132.0958282831835
 21
137.0315713983838
 31
0.0
 11
131.9797331040787
 21
137.5084974276239
 31
0.0
  0
SPLINE
  5
3B2
330
1F
100
AcDbEntity
  8
0
  6
Continuous
 62
     7
100
AcDbSpline
210
0.0
220
0.0
230
1.0
 70
     8
 71
     3
 72
     9
 73
     5
 74
     3
 42
0.000000001
 43
0.0000000001
 44
0.00000001
 40
0.0
 40
0.0
 40
0.0
 40
0.0
 40
0.7315726120461119
 40
1.440374069021918
 40
1.440374069021918
 40
1.440374069021918
 40
1.440374069021918
 10
136.7388965766281
 20
132.5666248635465
 30
0.0
 10
136.5151034271657
 20
132.6637935815616
 30
0.0
 10
136.0744829914106
 20
132.8551065321672
 30
0.0
 10
135.6513504540288
 20
133.0824771683331
 30
0.0
 10
135.443128882234
 20
133.1943652218003
 30
0.0
 11
136.7388965766281
 21
132.5666248635465
 31
0.0
 11
136.0720284345766
 21
132.8674327228517
 31
0.0
 11
135.443128882234
 21
133.1943652218003
 31
0.0
  0
SPLINE
  5
3B3
330
1F
100
AcDbEntity
  8
0
  6
Continuous
 62
     7
100
AcDbSpline
210
0.0
220
0.0
230
1.0
 70
     8
 71
     3
 72
     9
 73
     5
 74
     3
 42
0.000000001
 43
0.0000000001
 44
0.00000001
 40
0.0
 40
0.0
 40
0.0
 40
0.0
 40
0.675135015803024
 40
1.325999346457047
 40
1.325999346457047
 40
1.325999346457047
 40
1.325999346457047
 10
135.5634472413877
 20
133.2662992018342
 30
0.0
 10
135.3683158809256
 20
133.3787041205359
 30
0.0
 10
134.9850680219433
 20
133.5994730878017
 30
0.0
 10
134.6246764072564
 20
133.8558416170686
 30
0.0
 10
134.4477788541134
 20
133.9816796444238
 30
0.0
 11
135.5634472413877
 21
133.2662992018342
 31
0.0
 11
134.9839783176003
 21
133.6127426407369
 31
0.0
 11
134.4477788541134
 21
133.9816796444238
 31
0.0
  0
SPLINE
  5
3B4
330
1F
100
AcDbEntity
  8
0
  6
Continuous
 62
     7
100
AcDbSpline
210
0.0
220
0.0
230
1.0
 70
     8
 71
     3
 72
     9
 73
     5
 74
     3
 42
0.000000001
 43
0.0000000001
 44
0.00000001
 40
0.0
 40
0.0
 40
0.0
 40
0.0
 40
0.6508643306539955
 40
1.325999346457095
 40
1.325999346457095
 40
1.325999346457095
 40
1.325999346457095
 10
68.00688936728238
 20
133.9816796444238
 30
0.0
 10
67.82999181413942
 20
133.8558416170687
 30
0.0
 10
67.46960019945246
 20
133.5994730878017
 30
0.0
 10
67.08635234047019
 20
133.378704120536
 30
0.0
 10
66.89122098000803
 20
133.2662992018342
 30
0.0
 11
68.00688936728238
 21
133.9816796444238
 31
0.0
 11
67.47068990379555
 21
133.612742640737
 31
0.0
 11
66.89122098000803
 21
133.2662992018342
 31
0.0
  0
SPLINE
  5
3B5
330
1F
100
AcDbEntity
  8
0
  6
Continuous
 62
     7
100
AcDbSpline
210
0.0
220
0.0
230
1.0
 70
     8
 71
     3
 72
     9
 73
     5
 74
     3
 42
0.000000001
 43
0.0000000001
 44
0.00000001
 40
0.0
 40
0.0
 40
0.0
 40
0.0
 40
0.6105709141640565
 40
1.245926453180427
 40
1.245926453180427
 40
1.245926453180427
 40
1.245926453180427
 10
69.08925419839579
 20
134.7297438241708
 30
0.0
 10
68.94218448651935
 20
134.5888100718034
 30
0.0
 10
68.64207511616335
 20
134.3012217228687
 30
0.0
 10
68.31179960349937
 20
134.0488231818605
 30
0.0
 10
68.14337683349822
 20
133.9201134968912
 30
0.0
 11
69.08925419839579
 21
134.7297438241708
 31
0.0
 11
68.64080057677528
 21
134.3153935002505
 31
0.0
 11
68.14337683349822
 21
133.9201134968912
 31
0.0
  0
SPLINE
  5
3B6
330
1F
100
AcDbEntity
  8
0
  6
Continuous
 62
     7
100
AcDbSpline
210
0.0
220
0.0
230
1.0
 70
     8
 71
     3
 72
     9
 73
     5
 74
     3
 42
0.000000001
 43
0.0000000001
 44
0.00000001
 40
0.0
 40
0.0
 40
0.0
 40
0.0
 40
0.6353555390164265
 40
1.245926453180395
 40
1.245926453180395
 40
1.245926453180395
 40
1.245926453180395
 10
134.3112913878975
 20
133.9201134968912
 30
0.0
 10
134.1428686178963
 20
134.0488231818605
 30
0.0
 10
133.8125931052324
 20
134.3012217228687
 30
0.0
 10
133.5124837348763
 20
134.5888100718034
 30
0.0
 10
133.3654140229999
 20
134.7297438241707
 30
0.0
 11
134.3112913878975
 21
133.9201134968912
 31
0.0
 11
133.8138676446204
 21
134.3153935002505
 31
0.0
 11
133.3654140229999
 21
134.7297438241707
 31
0.0
  0
SPLINE
  5
3B7
330
1F
100
AcDbEntity
  8
0
  6
Continuous
 62
     7
100
AcDbSpline
210
0.0
220
0.0
230
1.0
 70
     8
 71
     3
 72
    11
 73
     7
 74
     5
 42
0.000000001
 43
0.0000000001
 44
0.00000001
 40
0.0
 40
0.0
 40
0.0
 40
0.0
 40
0.1798189530922811
 40
0.3557216452688735
 40
0.5294147389462374
 40
0.6991137350298056
 40
0.6991137350298056
 40
0.6991137350298056
 40
0.6991137350298056
 10
143.0773341106979
 20
131.3447618573147
 30
0.0
 10
143.1372345344861
 20
131.3425840775642
 30
0.0
 10
143.2557308165904
 20
131.3382759626504
 30
0.0
 10
143.4321422284571
 20
131.3335926146464
 30
0.0
 10
143.6052157770693
 20
131.3303877287158
 30
0.0
 10
143.719680400387
 20
131.3299567832307
 30
0.0
 10
143.7762470257135
 20
131.3297438241715
 30
0.0
 11
143.0773341106979
 21
131.3447618573147
 31
0.0
 11
143.2570448809821
 21
131.3385252768486
 31
0.0
 11
143.4328843568758
 21
131.3338097849025
 31
0.0
 11
143.6065512854431
 21
131.3307950288981
 31
0.0
 11
143.7762470257135
 21
131.3297438241715
 31
0.0
  0
SPLINE
  5
3B8
330
1F
100
AcDbEntity
  8
0
  6
Continuous
 62
     7
100
AcDbSpline
210
0.0
220
0.0
230
1.0
 70
     8
 71
     3
 72
     9
 73
     5
 74
     3
 42
0.000000001
 43
0.0000000001
 44
0.00000001
 40
0.0
 40
0.0
 40
0.0
 40
0.0
 40
0.8057103430924103
 40
1.595912057489743
 40
1.595912057489743
 40
1.595912057489743
 40
1.595912057489743
 10
139.7186401648355
 20
131.6518954786699
 30
0.0
 10
139.4563260682951
 20
131.7099303473795
 30
0.0
 10
138.9367470045943
 20
131.8248830263
 30
0.0
 10
138.4261776942633
 20
131.9748539102547
 30
0.0
 10
138.1733738268223
 20
132.0491106741586
 30
0.0
 11
139.7186401648355
 21
131.6518954786699
 31
0.0
 11
138.9339943057211
 21
131.8349256212855
 31
0.0
 11
138.1733738268223
 21
132.0491106741586
 31
0.0
  0
SPLINE
  5
3B9
330
1F
100
AcDbEntity
  8
0
  6
Continuous
 62
     7
100
AcDbSpline
210
0.0
220
0.0
230
1.0
 70
     8
 71
     3
 72
     9
 73
     5
 74
     3
 42
0.000000001
 43
0.0000000001
 44
0.00000001
 40
0.0
 40
0.0
 40
0.0
 40
0.0
 40
0.0228136587415774
 40
0.0456253432567818
 40
0.0456253432567818
 40
0.0456253432567818
 40
0.0456253432567818
 10
143.0773341106979
 20
131.3447618573147
 30
0.0
 10
143.0697351660458
 20
131.3450538972897
 30
0.0
 10
143.0545379351108
 20
131.3456379719522
 30
0.0
 10
143.0393416935221
 20
131.3462472443631
 30
0.0
 10
143.0317439018965
 20
131.3465518773787
 30
0.0
 11
143.0773341106979
 21
131.3447618573147
 31
0.0
 11
143.0545375244864
 21
131.3456442872153
 31
0.0
 11
143.0317439018965
 21
131.3465518773787
 31
0.0
  0
SPLINE
  5
3BA
330
1F
100
AcDbEntity
  8
0
  6
Continuous
 62
     7
100
AcDbSpline
210
0.0
220
0.0
230
1.0
 70
     8
 71
     3
 72
     9
 73
     5
 74
     3
 42
0.000000001
 43
0.0000000001
 44
0.00000001
 40
0.0
 40
0.0
 40
0.0
 40
0.0
 40
0.817742602207183
 40
1.624931971542669
 40
1.624931971542669
 40
1.624931971542669
 40
1.624931971542669
 10
141.380630100311
 20
131.4805253791081
 30
0.0
 10
141.1103541027832
 20
131.5164894484904
 30
0.0
 10
140.573290109988
 20
131.5879534790602
 30
0.0
 10
140.0418661064709
 20
131.6934560448982
 30
0.0
 10
139.7778797913808
 20
131.7458647407483
 30
0.0
 11
141.380630100311
 21
131.4805253791081
 31
0.0
 11
140.5712304806164
 21
131.5970381228321
 31
0.0
 11
139.7778797913808
 21
131.7458647407483
 31
0.0
  0
SPLINE
  5
3BB
330
1F
100
AcDbEntity
  8
0
  6
Continuous
 62
     7
100
AcDbSpline
210
0.0
220
0.0
230
1.0
 70
     8
 71
     3
 72
     9
 73
     5
 74
     3
 42
0.000000001
 43
0.0000000001
 44
0.00000001
 40
0.0
 40
0.0
 40
0.0
 40
0.0
 40
0.8431800229630791
 40
1.68089862753328
 40
1.68089862753328
 40
1.68089862753328
 40
1.68089862753328
 10
143.0196617262283
 20
131.2467954723527
 30
0.0
 10
142.7388847269621
 20
131.2609497581993
 30
0.0
 10
142.1791493695505
 20
131.2891666701524
 30
0.0
 10
141.6221924111908
 20
131.3515969102888
 30
0.0
 10
141.3446187391127
 20
131.3827106190348
 30
0.0
 11
143.0196617262283
 21
131.2467954723527
 31
0.0
 11
142.1780298497935
 21
131.2978673436444
 31
0.0
 11
141.3446187391127
 21
131.3827106190348
 31
0.0
  0
SPLINE
  5
3BC
330
1F
100
AcDbEntity
  8
0
  6
Continuous
 62
     7
100
AcDbSpline
210
0.0
220
0.0
230
1.0
 70
     8
 71
     3
 72
     9
 73
     5
 74
     3
 42
0.000000001
 43
0.0000000001
 44
0.00000001
 40
0.0
 40
0.0
 40
0.0
 40
0.0
 40
0.7614971008903806
 40
1.503651190639961
 40
1.503651190639961
 40
1.503651190639961
 40
1.503651190639961
 10
138.2546886867677
 20
132.1374054334445
 30
0.0
 10
138.0127992435697
 20
132.21467558143
 30
0.0
 10
137.5351646684086
 20
132.3672531345997
 30
0.0
 10
137.0701970809353
 20
132.5549067411187
 30
0.0
 10
136.8407039687191
 20
132.647526562984
 30
0.0
 11
138.2546886867677
 21
132.1374054334445
 31
0.0
 11
137.5322691056327
 21
132.3782119612523
 31
0.0
 11
136.8407039687191
 21
132.647526562984
 31
0.0
  0
SPLINE
  5
3BD
330
1F
100
AcDbEntity
  8
0
  6
Continuous
 62
     7
100
AcDbSpline
210
0.0
220
0.0
230
1.0
 70
     8
 71
     3
 72
     9
 73
     5
 74
     3
 42
0.000000001
 43
0.0000000001
 44
0.00000001
 40
0.0
 40
0.0
 40
0.0
 40
0.0
 40
0.7421540897495807
 40
1.503651190640069
 40
1.503651190640069
 40
1.503651190640069
 40
1.503651190640069
 10
65.61396425267662
 20
132.647526562984
 30
0.0
 10
65.38447114046049
 20
132.5549067411187
 30
0.0
 10
64.9195035529871
 20
132.3672531345997
 30
0.0
 10
64.44186897782592
 20
132.21467558143
 30
0.0
 10
64.19997953462791
 20
132.1374054334445
 30
0.0
 11
65.61396425267662
 21
132.647526562984
 31
0.0
 11
64.92239911576308
 21
132.3782119612523
 31
0.0
 11
64.19997953462791
 21
132.1374054334445
 31
0.0
  0
SPLINE
  5
3BE
330
1F
100
AcDbEntity
  8
0
  6
Continuous
 62
     7
100
AcDbSpline
210
0.0
220
0.0
230
1.0
 70
     8
 71
     3
 72
     9
 73
     5
 74
     3
 42
0.000000001
 43
0.0000000001
 44
0.00000001
 40
0.0
 40
0.0
 40
0.0
 40
0.0
 40
0.7902017143972707
 40
1.595912057489804
 40
1.595912057489804
 40
1.595912057489804
 40
1.595912057489804
 10
64.28129439457337
 20
132.0491106741586
 30
0.0
 10
64.02849052713238
 20
131.9748539102548
 30
0.0
 10
63.51792121680145
 20
131.8248830263
 30
0.0
 10
62.99834215310052
 20
131.7099303473794
 30
0.0
 10
62.73602805656014
 20
131.6518954786698
 30
0.0
 11
64.28129439457337
 21
132.0491106741586
 31
0.0
 11
63.52067391567459
 21
131.8349256212855
 31
0.0
 11
62.73602805656014
 21
131.6518954786698
 31
0.0
  0
SPLINE
  5
3BF
330
1F
100
AcDbEntity
  8
0
  6
Continuous
 62
     7
100
AcDbSpline
210
0.0
220
0.0
230
1.0
 70
     8
 71
     3
 72
     9
 73
     5
 74
     3
 42
0.000000001
 43
0.0000000001
 44
0.00000001
 40
0.0
 40
0.0
 40
0.0
 40
0.0
 40
0.0228116845154458
 40
0.0456253432571226
 40
0.0456253432571226
 40
0.0456253432571226
 40
0.0456253432571226
 10
59.42292431949943
 20
131.3465518773787
 30
0.0
 10
59.41532652787371
 20
131.3462472443632
 30
0.0
 10
59.40013028628493
 20
131.3456379719522
 30
0.0
 10
59.38493305534982
 20
131.3450538972897
 30
0.0
 10
59.37733411069769
 20
131.3447618573147
 30
0.0
 11
59.42292431949943
 21
131.3465518773787
 31
0.0
 11
59.40013069690933
 21
131.3456442872153
 31
0.0
 11
59.37733411069769
 21
131.3447618573147
 31
0.0
  0
SPLINE
  5
3C0
330
1F
100
AcDbEntity
  8
0
  6
Continuous
 62
     7
100
AcDbSpline
210
0.0
220
0.0
230
1.0
 70
     8
 71
     3
 72
    17
 73
    13
 74
    11
 42
0.000000001
 43
0.0000000001
 44
0.00000001
 40
0.0
 40
0.0
 40
0.0
 40
0.0
 40
0.0722829285807727
 40
0.1380981768787054
 40
0.2165131416713061
 40
0.2764231511426217
 40
0.3412985110830544
 40
0.4040443518222483
 40
0.4383248530900097
 40
0.4786350339011772
 40
0.5153393992314492
 40
0.5534336300896949
 40
0.5534336300896949
 40
0.5534336300896949
 40
0.5534336300896949
 10
143.3940044829816
 20
130.8839817298435
 30
0.0
 10
143.4181157466592
 20
130.8846397405948
 30
0.0
 10
143.4641808628504
 20
130.8858968991485
 30
0.0
 10
143.5355594377045
 20
130.8979374620965
 30
0.0
 10
143.6007151911732
 20
130.9189446982302
 30
0.0
 10
143.6603028477154
 20
130.9519317229182
 30
0.0
 10
143.707949031344
 20
130.9932933319456
 30
0.0
 10
143.7392302763124
 20
131.0379723772234
 30
0.0
 10
143.758164454872
 20
131.0797731317409
 30
0.0
 10
143.7687437685599
 20
131.1154509730839
 30
0.0
 10
143.7751531035449
 20
131.1534000639156
 30
0.0
 10
143.7758779002861
 20
131.1783473980781
 30
0.0
 10
143.7762470257135
 20
131.1910528442112
 30
0.0
 11
143.3940044829816
 21
130.8839817298435
 31
0.0
 11
143.4661909202563
 21
130.8877153505811
 31
0.0
 11
143.5310902560858
 21
130.8986571611944
 31
0.0
 11
143.6054689833042
 21
130.9234908450222
 31
0.0
 11
143.6577199845098
 21
130.9528002676242
 31
0.0
 11
143.7064830073476
 21
130.9955902211629
 31
0.0
 11
143.7424844011106
 21
131.0469803016683
 31
0.0
 11
143.7566587006093
 21
131.0781931526018
 31
0.0
 11
143.7682557525578
 21
131.1167990999099
 31
0.0
 11
143.7742473772577
 21
131.1530111283005
 31
0.0
 11
143.7762470257135
 21
131.1910528442112
 31
0.0
  0
SPLINE
  5
3C1
330
1F
100
AcDbEntity
  8
0
  6
Continuous
 62
     7
100
AcDbSpline
210
0.0
220
0.0
230
1.0
 70
     8
 71
     3
 72
     9
 73
     5
 74
     3
 42
0.000000001
 43
0.0000000001
 44
0.00000001
 40
0.0
 40
0.0
 40
0.0
 40
0.0
 40
0.5556047744252901
 40
1.133702377970481
 40
1.133702377970481
 40
1.133702377970481
 40
1.133702377970481
 10
69.67016805245964
 20
135.6449583296009
 30
0.0
 10
69.56010098887654
 20
135.495744769375
 30
0.0
 10
69.33551094554237
 20
135.1912769734162
 30
0.0
 10
69.07307537321581
 20
134.9187240334826
 30
0.0
 10
68.93925419839593
 20
134.7797438241709
 30
0.0
 11
69.67016805245964
 21
135.6449583296009
 31
0.0
 11
69.33087717810793
 21
135.2049829116159
 31
0.0
 11
68.93925419839593
 21
134.7797438241709
 31
0.0
  0
SPLINE
  5
3C2
330
1F
100
AcDbEntity
  8
0
  6
Continuous
 62
     7
100
AcDbSpline
210
0.0
220
0.0
230
1.0
 70
     8
 71
     3
 72
     9
 73
     5
 74
     3
 42
0.000000001
 43
0.0000000001
 44
0.00000001
 40
0.0
 40
0.0
 40
0.0
 40
0.0
 40
0.80718936933546
 40
1.624931971542696
 40
1.624931971542696
 40
1.624931971542696
 40
1.624931971542696
 10
62.67678843001488
 20
131.7458647407483
 30
0.0
 10
62.41280211492481
 20
131.6934560448981
 30
0.0
 10
61.88137811140768
 20
131.5879534790602
 30
0.0
 10
61.34431411861244
 20
131.5164894484905
 30
0.0
 10
61.07403812108464
 20
131.4805253791081
 30
0.0
 11
62.67678843001488
 21
131.7458647407483
 31
0.0
 11
61.88343774077927
 21
131.5970381228322
 31
0.0
 11
61.07403812108464
 21
131.4805253791081
 31
0.0
  0
SPLINE
  5
3C3
330
1F
100
AcDbEntity
  8
0
  6
Continuous
 62
     7
100
AcDbSpline
210
0.0
220
0.0
230
1.0
 70
     8
 71
     3
 72
     9
 73
     5
 74
     3
 42
0.000000001
 43
0.0000000001
 44
0.00000001
 40
0.0
 40
0.0
 40
0.0
 40
0.0
 40
0.7088014569756917
 40
1.440374069021866
 40
1.440374069021866
 40
1.440374069021866
 40
1.440374069021866
 10
67.01153933916169
 20
133.1943652218003
 30
0.0
 10
66.80331776736693
 20
133.0824771683331
 30
0.0
 10
66.38018522998507
 20
132.8551065321673
 30
0.0
 10
65.93956479423008
 20
132.6637935815615
 30
0.0
 10
65.71577164476764
 20
132.5666248635465
 30
0.0
 11
67.01153933916169
 21
133.1943652218003
 31
0.0
 11
66.38263978681923
 21
132.8674327228518
 31
0.0
 11
65.71577164476764
 21
132.5666248635465
 31
0.0
  0
SPLINE
  5
3C4
330
1F
100
AcDbEntity
  8
0
  6
Continuous
 62
     7
100
AcDbSpline
210
0.0
220
0.0
230
1.0
 70
     8
 71
     3
 72
    11
 73
     7
 74
     5
 42
0.000000001
 43
0.0000000001
 44
0.00000001
 40
0.0
 40
0.0
 40
0.0
 40
0.0
 40
0.1696989958764052
 40
0.3433920898379159
 40
0.5192947821116642
 40
0.6991137350298354
 40
0.6991137350298354
 40
0.6991137350298354
 40
0.6991137350298354
 10
58.67842119568206
 20
131.3297438241715
 30
0.0
 10
58.73498782093944
 20
131.3299567832302
 30
0.0
 10
58.8494524442829
 20
131.330387728715
 30
0.0
 10
59.02252599295317
 20
131.3335926146462
 30
0.0
 10
59.1989374048888
 20
131.338275962653
 30
0.0
 10
59.31743368696752
 20
131.3425840775661
 30
0.0
 10
59.37733411069769
 20
131.3447618573147
 30
0.0
 11
58.67842119568206
 21
131.3297438241715
 31
0.0
 11
58.84811693574525
 21
131.3307950288956
 31
0.0
 11
59.02178386459673
 21
131.3338097849042
 31
0.0
 11
59.19762334058748
 21
131.3385252768539
 31
0.0
 11
59.37733411069769
 21
131.3447618573147
 31
0.0
  0
SPLINE
  5
3C5
330
1F
100
AcDbEntity
  8
0
  6
Continuous
 62
     7
100
AcDbSpline
210
0.0
220
0.0
230
1.0
 70
     8
 71
     3
 72
    17
 73
    13
 74
    11
 42
0.000000001
 43
0.0000000001
 44
0.00000001
 40
0.0
 40
0.0
 40
0.0
 40
0.0
 40
0.0767685038277335
 40
0.1383860183974407
 40
0.2166342952078117
 40
0.2764387282024122
 40
0.3413138981799471
 40
0.4040605472250151
 40
0.4409806078197731
 40
0.4786434003205099
 40
0.5128769860135439
 40
0.5534334332292437
 40
0.5534334332292437
 40
0.5534334332292437
 40
0.5534334332292437
 10
59.06066359315753
 20
130.8839817298401
 30
0.0
 10
59.03505165948534
 20
130.8847170004443
 30
0.0
 10
58.9888825498835
 20
130.8860424425949
 30
0.0
 10
58.91754419581336
 20
130.8984282498869
 30
0.0
 10
58.85382478388524
 20
130.9190083082914
 30
0.0
 10
58.79432648509973
 20
130.9519640070801
 30
0.0
 10
58.746708778759
 20
130.9933068344581
 30
0.0
 10
58.7149221443163
 20
131.038712162292
 30
0.0
 10
58.69619405734105
 20
131.0806279859546
 30
0.0
 10
58.68601035510665
 20
131.1155385360705
 30
0.0
 10
58.67960075706405
 20
131.152576828351
 30
0.0
 10
58.67883593052303
 20
131.1775244597486
 30
0.0
 10
58.67842119444117
 20
131.1910528309363
 30
0.0
 11
59.06066359315753
 21
130.8839817298401
 31
0.0
 11
58.98401186966244
 21
130.888214500671
 31
0.0
 11
58.92329709501757
 21
130.8987232747463
 31
0.0
 11
58.84908868199167
 21
130.9235406974959
 31
0.0
 11
58.79693594020193
 21
130.9528094842036
 31
0.0
 11
58.74817568343499
 21
130.995602301753
 31
0.0
 11
58.71217703083801
 21
131.0469952893781
 31
0.0
 11
58.69707732850085
 21
131.0806863852051
 31
0.0
 11
58.68641128666707
 21
131.1168073152056
 31
0.0
 11
58.68069403991184
 21
131.1505601164642
 31
0.0
 11
58.67842119444117
 21
131.1910528309363
 31
0.0
  0
SPLINE
  5
3C6
330
1F
100
AcDbEntity
  8
0
  6
Continuous
 62
     7
100
AcDbSpline
210
0.0
220
0.0
230
1.0
 70
     8
 71
     3
 72
     9
 73
     5
 74
     3
 42
0.000000001
 43
0.0000000001
 44
0.00000001
 40
0.0
 40
0.0
 40
0.0
 40
0.0
 40
0.6105709131690877
 40
1.197046743818276
 40
1.197046743818276
 40
1.197046743818276
 40
1.197046743818276
 10
68.6408005777381
 20
142.1440941484662
 30
0.0
 10
68.7932462210012
 20
142.0089336723305
 30
0.0
 10
69.09212150064037
 20
141.7439465706758
 30
0.0
 10
69.35685198792082
 20
141.4448700815865
 30
0.0
 10
69.48655287450981
 20
141.2983418516945
 30
0.0
 11
68.6408005777381
 21
142.1440941484662
 31
0.0
 11
69.08925419739005
 21
141.7297438238357
 31
0.0
 11
69.48655287450981
 21
141.2983418516945
 31
0.0
  0
SPLINE
  5
3C7
330
1F
100
AcDbEntity
  8
0
  6
Continuous
 62
     7
100
AcDbSpline
210
0.0
220
0.0
230
1.0
 70
     8
 71
     3
 72
     9
 73
     5
 74
     3
 42
0.000000001
 43
0.0000000001
 44
0.00000001
 40
0.0
 40
0.0
 40
0.0
 40
0.0
 40
0.8377186045700106
 40
1.680898627533395
 40
1.680898627533395
 40
1.680898627533395
 40
1.680898627533395
 10
61.11004948228299
 20
131.3827106190348
 30
0.0
 10
60.8324758102049
 20
131.3515969102888
 30
0.0
 10
60.27551885184518
 20
131.2891666701524
 30
0.0
 10
59.7157834944336
 20
131.2609497581993
 30
0.0
 10
59.43500649516727
 20
131.2467954723527
 30
0.0
 11
61.11004948228299
 21
131.3827106190348
 31
0.0
 11
60.27663837160237
 21
131.2978673436444
 31
0.0
 11
59.43500649516727
 21
131.2467954723527
 31
0.0
  0
SPLINE
  5
3C8
330
1F
100
AcDbEntity
  8
0
  6
Continuous
 62
     7
100
AcDbSpline
210
0.0
220
0.0
230
1.0
 70
     8
 71
     3
 72
    23
 73
    19
 74
    17
 42
0.000000001
 43
0.0000000001
 44
0.00000001
 40
0.0
 40
0.0
 40
0.0
 40
0.0
 40
0.1089731749941833
 40
0.2003767379988045
 40
0.3005353298991432
 40
0.4009341760392791
 40
0.5010092137333506
 40
0.6014435939489946
 40
0.6928820013736157
 40
0.8019241267777341
 40
0.9019806765594693
 40
1.002464162728058
 40
1.094096097287078
 40
1.203000915191259
 40
1.29468938987234
 40
1.403455620914791
 40
1.512149209424855
 40
1.604217282936921
 40
1.604217282936921
 40
1.604217282936921
 40
1.604217282936921
 10
213.0773347032661
 20
69.72974382417425
 30
0.0
 10
213.0785106650045
 20
69.69339827095503
 30
0.0
 10
213.0806730032373
 20
69.6265671144794
 30
0.0
 10
213.0972982488689
 20
69.52753780673046
 30
0.0
 10
213.1221827432246
 20
69.43331117441625
 30
0.0
 10
213.1578749259068
 20
69.33946617848538
 30
0.0
 10
213.2029616203467
 20
69.24968072793511
 30
0.0
 10
213.2553316885495
 20
69.16745342827828
 30
0.0
 10
213.3171713564728
 20
69.08831283451845
 30
0.0
 10
213.3865338661748
 20
69.01574909112766
 30
0.0
 10
213.4652198499099
 20
68.94874022012398
 30
0.0
 10
213.5452716842608
 20
68.89299771565197
 30
0.0
 10
213.632636631674
 20
68.84340245546886
 30
0.0
 10
213.7216959665388
 20
68.80350610581478
 30
0.0
 10
213.8194525052641
 20
68.77028523805058
 30
0.0
 10
213.9198643287921
 20
68.74647949674602
 30
0.0
 10
214.0222886927182
 20
68.73214186215486
 30
0.0
 10
214.0892273271899
 20
68.7304977821551
 30
0.0
 10
214.1199249769166
 20
68.72974382417425
 30
0.0
 11
213.0773347032661
 21
69.72974382417425
 31
0.0
 11
213.0835014717858
 21
69.62094527507688
 31
0.0
 11
213.0981185406865
 21
69.53071804580196
 31
0.0
 11
213.1238374732162
 21
69.43391783769142
 31
0.0
 11
213.1594776739169
 21
69.34005781107595
 31
0.0
 11
213.2043835423058
 21
69.25062361003985
 31
0.0
 11
213.2583187691933
 21
69.16590020022466
 31
0.0
 11
213.3146083881216
 21
69.09384146544477
 31
0.0
 11
213.389936778844
 21
69.01500100119375
 31
0.0
 11
213.4661008008163
 21
68.95011375265923
 31
0.0
 11
213.548550461875
 21
68.89267696571827
 31
0.0
 11
213.6282320263759
 21
68.84743031056917
 31
0.0
 11
213.7276070746063
 21
68.80287855087326
 31
0.0
 11
213.8144252561444
 21
68.77339330281498
 31
0.0
 11
213.9202199661986
 21
68.74814310424216
 31
0.0
 11
214.0279383530339
 21
68.73361569630042
 31
0.0
 11
214.1199249769166
 21
68.72974382417425
 31
0.0
  0
SPLINE
  5
3C9
330
1F
100
AcDbEntity
  8
0
  6
Continuous
 62
     7
100
AcDbSpline
210
0.0
220
0.0
230
1.0
 70
     8
 71
     3
 72
    11
 73
     7
 74
     5
 42
0.000000001
 43
0.0000000001
 44
0.00000001
 40
0.0
 40
0.0
 40
0.0
 40
0.0
 40
0.112606774073351
 40
0.2241631912646015
 40
0.3337510563915683
 40
0.4407092467488708
 40
0.4407092467488708
 40
0.4407092467488708
 40
0.4407092467488708
 10
247.4602791849702
 20
145.2297438241723
 30
0.0
 10
247.4978747947163
 20
145.2279277468599
 30
0.0
 10
247.5727153339677
 20
145.2243125171734
 30
0.0
 10
247.6806961763187
 20
145.1948297159724
 30
0.0
 10
247.7814430196949
 20
145.150219149475
 30
0.0
 10
247.8388983941184
 20
145.1061457590704
 30
0.0
 10
247.8672772161303
 20
145.0843766652541
 30
0.0
 11
247.4602791849702
 21
145.2297438241723
 31
0.0
 11
247.5724817181253
 21
145.2202108674061
 31
0.0
 11
247.6804057840884
 21
145.191975595333
 31
0.0
 11
247.7799360206416
 21
145.1461145812983
 31
0.0
 11
247.8672772161303
 21
145.0843766652541
 31
0.0
  0
SPLINE
  5
3CA
330
1F
100
AcDbEntity
  8
0
  6
Continuous
 62
     7
100
AcDbSpline
210
0.0
220
0.0
230
1.0
 70
     8
 71
     3
 72
    15
 73
    11
 74
     9
 42
0.000000001
 43
0.0000000001
 44
0.00000001
 40
0.0
 40
0.0
 40
0.0
 40
0.0
 40
0.0010818682158683
 40
0.0021641107130436
 40
0.0032467270570737
 40
0.0043297168069534
 40
0.0054130795204782
 40
0.0064968147543062
 40
0.0075809220638648
 40
0.008665401008677
 40
0.008665401008677
 40
0.008665401008677
 40
0.008665401008677
 10
237.7523347032581
 20
86.39260177626477
 30
0.0
 10
237.751993693863
 20
86.39248446736721
 30
0.0
 10
237.7513115618646
 20
86.39224979514125
 30
0.0
 10
237.7502886617571
 20
86.39189634845812
 30
0.0
 10
237.7492657665197
 20
86.39154174511768
 30
0.0
 10
237.7482429103584
 20
86.39118589088524
 30
0.0
 10
237.7472200844947
 20
86.39082881640522
 30
0.0
 10
237.7461973019194
 20
86.39047048986892
 30
0.0
 10
237.745174531543
 20
86.39011100442951
 30
0.0
 10
237.744492891841
 20
86.38987038645854
 30
0.0
 10
237.7441520160186
 20
86.38975004995055
 30
0.0
 11
237.7523347032581
 21
86.39260177626477
 31
0.0
 11
237.7513117556566
 21
86.39224961571504
 31
0.0
 11
237.7502888359409
 21
86.39189622626796
 31
0.0
 11
237.7492659461215
 21
86.39154160733266
 31
0.0
 11
237.7482430882114
 21
86.39118575832316
 31
0.0
 11
237.7472202642265
 21
86.39082867865659
 31
0.0
 11
237.7461974761848
 21
86.39047036775477
 31
0.0
 11
237.7451747261076
 21
86.3901108250428
 31
0.0
 11
237.7441520160186
 21
86.38975004995055
 31
0.0
  0
SPLINE
  5
3CB
330
1F
100
AcDbEntity
  8
0
  6
Continuous
 62
     7
100
AcDbSpline
210
0.0
220
0.0
230
1.0
 70
     8
 71
     3
 72
    15
 73
    11
 74
     9
 42
0.000000001
 43
0.0000000001
 44
0.00000001
 40
0.0
 40
0.0
 40
0.0
 40
0.0
 40
0.0010844789474497
 40
0.0021685862593778
 40
0.0032523214956604
 40
0.0043356842118008
 40
0.0054186739642377
 40
0.0065012903107269
 40
0.0075835328102926
 40
0.0086654010286857
 40
0.0086654010286857
 40
0.0086654010286857
 40
0.0086654010286857
 10
212.4105173905325
 20
86.38975004994387
 30
0.0
 10
212.4101765147093
 20
86.38987038645212
 30
0.0
 10
212.4094948750056
 20
86.3901110044236
 30
0.0
 10
212.4084721046269
 20
86.39047048986397
 30
0.0
 10
212.4074493220494
 20
86.3908288164011
 30
0.0
 10
212.4064264961833
 20
86.39118589088193
 30
0.0
 10
212.4054036400196
 20
86.39154174511519
 30
0.0
 10
212.4043807447799
 20
86.3918963484565
 30
0.0
 10
212.40335784467
 20
86.39224979514049
 30
0.0
 10
212.40267571267
 20
86.39248446736686
 30
0.0
 10
212.4023347032741
 20
86.39260177626466
 30
0.0
 11
212.4105173905325
 21
86.38975004994387
 31
0.0
 11
212.409494680441
 21
86.39011082503696
 31
0.0
 11
212.4084719303616
 21
86.39047036774977
 31
0.0
 11
212.4074491423176
 21
86.39082867865244
 31
0.0
 11
212.4064263183302
 21
86.39118575831986
 31
0.0
 11
212.4054034604177
 21
86.3915416073302
 31
0.0
 11
212.404380570596
 21
86.39189622626637
 31
0.0
 11
212.403357650878
 21
86.39224961571419
 31
0.0
 11
212.4023347032741
 21
86.39260177626466
 31
0.0
  0
SPLINE
  5
3CC
330
1F
100
AcDbEntity
  8
0
  6
Continuous
 62
     7
100
AcDbSpline
210
0.0
220
0.0
230
1.0
 70
     8
 71
     3
 72
    13
 73
     9
 74
     7
 42
0.000000001
 43
0.0000000001
 44
0.00000001
 40
0.0
 40
0.0
 40
0.0
 40
0.0
 40
0.730134067964978
 40
1.454066882182745
 40
2.167131057670233
 40
2.867435595252262
 40
3.556498904020902
 40
4.23898788402451
 40
4.23898788402451
 40
4.23898788402451
 40
4.23898788402451
 10
63.52733411069789
 20
127.6201789283537
 30
0.0
 10
63.2833316382259
 20
127.6029757646825
 30
0.0
 10
62.7973990832967
 20
127.5687155347417
 30
0.0
 10
62.11640369340505
 20
127.2968159770875
 30
0.0
 10
61.52885337939838
 20
126.8816413092619
 30
0.0
 10
61.07998536525764
 20
126.3344952981138
 30
0.0
 10
60.78366498997077
 20
125.6960406877348
 30
0.0
 10
60.74605096670596
 20
125.2373718347437
 30
0.0
 10
60.72733411069783
 20
125.0091366871683
 30
0.0
 11
63.52733411069789
 21
127.6201789283537
 31
0.0
 11
62.80264097761822
 21
127.5312091490617
 31
0.0
 11
62.12733411069786
 21
127.2703655983891
 31
0.0
 11
61.54743565122804
 21
126.8554218696446
 31
0.0
 11
61.10246298010145
 21
126.314657807761
 31
0.0
 11
60.82274251814837
 21
125.6849239665854
 31
0.0
 11
60.72733411069783
 21
125.0091366871683
 31
0.0
  0
SPLINE
  5
3CD
330
1F
100
AcDbEntity
  8
0
  6
Continuous
 62
     7
100
AcDbSpline
210
0.0
220
0.0
230
1.0
 70
     8
 71
     3
 72
    13
 73
     9
 74
     7
 42
0.000000001
 43
0.0000000001
 44
0.00000001
 40
0.0
 40
0.0
 40
0.0
 40
0.0
 40
0.6824889800036439
 40
1.371552288772269
 40
2.071856826354343
 40
2.784921001841818
 40
3.508853816059623
 40
4.238987884024552
 40
4.238987884024552
 40
4.238987884024552
 40
4.238987884024552
 10
141.627334110698
 20
125.0091366871683
 30
0.0
 10
141.6086172546898
 20
125.2373718347437
 30
0.0
 10
141.571003231425
 20
125.6960406877348
 30
0.0
 10
141.2746828561381
 20
126.3344952981139
 30
0.0
 10
140.8258148419974
 20
126.881641309262
 30
0.0
 10
140.2382645279907
 20
127.2968159770876
 30
0.0
 10
139.5572691380991
 20
127.5687155347417
 30
0.0
 10
139.0713365831699
 20
127.6029757646826
 30
0.0
 10
138.8273341106979
 20
127.6201789283538
 30
0.0
 11
141.627334110698
 21
125.0091366871683
 31
0.0
 11
141.5319257032474
 21
125.6849239665854
 31
0.0
 11
141.2522052412943
 21
126.314657807761
 31
0.0
 11
140.8072325701677
 21
126.8554218696447
 31
0.0
 11
140.2273341106979
 21
127.2703655983892
 31
0.0
 11
139.5520272437775
 21
127.5312091490618
 31
0.0
 11
138.8273341106979
 21
127.6201789283538
 31
0.0
  0
ARC
  5
3CE
102
{ACAD_REACTORS
330
42F
102
}
330
1F
100
AcDbEntity
  8
1
  6
Continuous
 62
     7
100
AcDbCircle
 10
281.3429673554093
 20
10.07749983983263
 30
0.0
 40
0.3333333333332007
100
AcDbArc
 50
180.0
 51
299.9816393688419
  0
ARC
  5
3CF
102
{ACAD_REACTORS
330
42F
102
}
330
1F
100
AcDbEntity
  8
1
  6
Continuous
 62
     7
100
AcDbCircle
 10
281.3429673554093
 20
14.92250016016737
 30
0.0
 40
0.3333333333333456
100
AcDbArc
 50
60.01836063115814
 51
180.0
  0
ARC
  5
3D0
330
1F
100
AcDbEntity
  8
1
  6
Continuous
 62
     7
100
AcDbCircle
 10
287.0094488883026
 20
12.5
 30
0.0
 40
0.1666666666666302
100
AcDbArc
 50
299.9816393688164
 51
60.01836063116308
  0
ARC
  5
3D1
330
1F
100
AcDbEntity
  8
1
  6
Continuous
 62
     7
100
AcDbCircle
 10
270.3431524891828
 20
12.5
 30
0.0
 40
0.1666666666666123
100
AcDbArc
 50
119.9816393688877
 51
240.0183606311327
  0
ARC
  5
3D2
102
{ACAD_REACTORS
330
431
102
}
330
1F
100
AcDbEntity
  8
1
  6
Continuous
 62
     7
100
AcDbCircle
 10
276.3429673554093
 20
10.2700211480327
 30
0.0
 40
0.6666666666666288
100
AcDbArc
 50
180.0000000000104
 51
240.018360631158
  0
ARC
  5
3D3
102
{ACAD_REACTORS
330
432
102
}
330
1F
100
AcDbEntity
  8
1
  6
Continuous
 62
     7
100
AcDbCircle
 10
278.6763006887427
 20
12.83333333333326
 30
0.0
 40
0.166666666666709
100
AcDbArc
 50
209.9999999999622
 51
330.000000000028
  0
MTEXT
  5
3D5
330
1F
100
AcDbEntity
  8
1
 62
     7
100
AcDbMText
 10
256.6763006887427
 20
16.26063942075598
 30
0.0
 40
3.0
 41
0.0
 71
     5
 72
     1
  1
Scale
  7
CONVERTER_11
 73
     1
 44
1.32052821128451
  0
MTEXT
  5
3D6
330
1F
100
AcDbEntity
  8
1
 62
     7
100
AcDbMText
 10
151.4999999999997
 20
194.0000000000001
 30
0.0
 40
4.0
 41
0.0
 71
     5
 72
     1
  1
Diritti riservati      All rights reserved
  7
CONVERTER_11
 73
     1
 44
1.32052821128451
  0
MTEXT
  5
3D8
330
1F
100
AcDbEntity
  8
1
 62
     7
100
AcDbMText
 10
123.0
 20
17.49999999999994
 30
0.0
 40
2.5
 41
0.0
 71
     5
 72
     1
  1
dimensions in mm
  7
CONVERTER_12
 73
     1
 44
0.60024009603842
  0
MTEXT
  5
3D9
330
1F
100
AcDbEntity
  8
1
 62
     7
100
AcDbMText
 10
109.0
 20
12.49999999999987
 30
0.0
 40
3.0
 41
0.0
 71
     4
 72
     1
  1
Date
  7
CONVERTER_11
 73
     1
 44
1.32052821128451
  0
MTEXT
  5
3DA
330
1F
100
AcDbEntity
  8
1
 62
     7
100
AcDbMText
 10
109.0
 20
7.49999999999987
 30
0.0
 40
3.0
 41
0.0
 71
     4
 72
     1
  1
Sign.
  7
CONVERTER_11
 73
     1
 44
1.32052821128451
  0
MTEXT
  5
3DB
330
1F
100
AcDbEntity
  8
1
 62
     7
100
AcDbMText
 10
119.6
 20
12.49999999999987
 30
0.0
 40
3.0
 41
0.0
 71
     4
 72
     1
  1
14/05/15
  7
CONVERTER_11
 73
     1
 44
1.32052821128451
  0
MTEXT
  5
3DC
330
1F
100
AcDbEntity
  8
1
 62
     7
100
AcDbMText
 10
144.2763006887427
 20
12.5
 30
0.0
 40
4.5
 41
0.0
 71
     4
 72
     1
  1
CZV 25 LG\PHood top entry 1 lev. PG16 
  7
CONVERTER_11
 73
     1
 44
0.90036014405762
  0
MTEXT
  5
3DD
330
1F
100
AcDbEntity
  8
1
 62
     7
100
AcDbMText
 10
119.6
 20
7.49999999999987
 30
0.0
 40
3.0
 41
0.0
 71
     4
 72
     1
  1
M.Pezzimenti
  7
CONVERTER_11
 73
     1
 44
1.32052821128451
  0
MTEXT
  5
3DE
330
1F
100
AcDbEntity
  8
1
 62
     7
100
AcDbMText
 10
256.6763006887427
 20
10.06063942075605
 30
0.0
 40
4.5
 41
0.0
 71
     5
 72
     1
  1
1:1
  7
CONVERTER_11
 73
     1
 44
1.32052821128451
  0
MTEXT
  5
3E0
330
1F
100
AcDbEntity
  8
1
 62
     7
100
AcDbMText
 10
101.1773343461869
 20
63.72974382295038
 30
0.0
 40
3.5
 41
0.0
 71
     2
 72
     1
  1
 
  7
CONVERTER_13
 73
     1
 44
1.32052821128451
  0
MTEXT
  5
3E1
330
1F
100
AcDbEntity
  8
1
 62
     7
100
AcDbMText
 10
232.2273303120044
 20
63.72974382295061
 30
0.0
 40
3.5
 41
0.0
 71
     2
 72
     1
  1
 
  7
CONVERTER_13
 73
     1
 44
1.32052821128451
  0
DIMENSION
  5
3EC
330
1F
100
AcDbEntity
  8
1
100
AcDbDimension
  2
*D2
 10
210.3773347032661
 20
174.5
 30
0.0
 11
236.7422622716786
 21
178.0
 31
0.0
 70
    32
  1
55
 71
     5
 42
-1.0
 53
0.00013888888889
  3
ME10_DIM_10
100
AcDbAlignedDimension
 13
263.107189840091
 23
116.6297438241738
 33
0.0
 14
210.3773347032661
 24
127.7297438241743
 34
0.0
100
AcDbRotatedDimension
  0
DIMENSION
  5
3F7
330
1F
100
AcDbEntity
  8
1
100
AcDbDimension
  2
*D3
 10
239.7773347032661
 20
160.2297438241723
 30
0.0
 11
225.0773347032661
 21
163.8797438241723
 31
0.0
 70
    32
  1
29,3
 71
     5
 42
-1.0
 53
0.00013888888889
  3
ME10_DIM_11
100
AcDbAlignedDimension
 13
210.3773347032661
 23
127.7297438241743
 33
0.0
 14
239.7773347032662
 24
124.0766212706768
 34
0.0
100
AcDbRotatedDimension
  0
DIMENSION
  5
402
330
1F
100
AcDbEntity
  8
1
100
AcDbDimension
  2
*D4
 10
194.338125933392
 20
86.22974382417428
 30
0.0
 11
190.688125933392
 21
106.9797438241743
 31
0.0
 70
    32
  1
<>
 71
     5
 42
-1.0
 53
90.0
  3
ME10_DIM_12
100
AcDbAlignedDimension
 13
210.3773347032661
 23
127.7297438241743
 33
0.0
 14
216.8773347032661
 24
86.22974382417425
 34
0.0
 50
90.0
100
AcDbRotatedDimension
  0
DIMENSION
  5
40D
330
1F
100
AcDbEntity
  8
1
100
AcDbDimension
  2
*D5
 10
177.9526899480449
 20
68.72974382417425
 30
0.0
 11
174.4526899480449
 21
98.22974382417428
 31
0.0
 70
    32
  1
<>
 71
     5
 42
-1.0
 53
90.0
  3
ME10_DIM_13
100
AcDbAlignedDimension
 13
210.3773347032661
 23
127.7297438241743
 33
0.0
 14
214.5684099247687
 24
68.72974382417425
 34
0.0
 50
90.0
100
AcDbRotatedDimension
  0
DIMENSION
  5
418
330
1F
100
AcDbEntity
  8
1
100
AcDbDimension
  2
*D6
 10
146.8773341106979
 20
175.2297438241723
 30
0.0
 11
101.1773341106978
 21
178.8797438241723
 31
0.0
 70
    32
  1
91,5
 71
     5
 42
-1.0
 53
0.00013888888889
  3
ME10_DIM_14
100
AcDbAlignedDimension
 13
55.47733411069783
 23
144.7297438241723
 33
0.0
 14
146.877334110698
 24
144.7297438241723
 34
0.0
100
AcDbRotatedDimension
  0
DIMENSION
  5
423
330
1F
100
AcDbEntity
  8
1
100
AcDbDimension
  2
*D7
 10
61.4773345774382
 20
160.2297438241723
 30
0.0
 11
101.1773345774382
 21
163.8797438241723
 31
0.0
 70
    32
  1
<>
 71
     5
 42
-1.0
 53
0.00013888888889
  3
ME10_DIM_15
100
AcDbAlignedDimension
 13
140.8773345774383
 23
126.7876505441709
 33
0.0
 14
61.47733457743823
 24
126.7876514798211
 34
0.0
100
AcDbRotatedDimension
  0
DIMENSION
  5
42E
330
1F
100
AcDbEntity
  8
1
100
AcDbDimension
  2
*D8
 10
92.1773345774382
 20
49.9373227280333
 30
0.0
 11
101.1773345774382
 21
53.4373227280333
 31
0.0
 70
    32
  1
PG16
 71
     5
 42
-1.0
 53
0.00013888888889
  3
ME10_DIM_16
100
AcDbAlignedDimension
 13
110.1773345774382
 23
68.72974382417428
 33
0.0
 14
92.17733457743822
 24
68.82974382417427
 34
0.0
100
AcDbRotatedDimension
  0
HATCH
  5
42F
330
1F
100
AcDbEntity
  8
1
  6
Continuous
 62
     7
100
AcDbHatch
 10
0.0
 20
0.0
 30
0.0
210
0.0
220
0.0
230
1.0
  2
SOLID
 70
     1
 71
     1
 91
        1
 92
        1
 93
       14
 72
     1
 10
282.5097265375795
 20
13.86454086225376
 11
281.6763006887427
 21
14.34536346735195
 72
     1
 10
281.6763006887427
 20
14.34536346735195
 11
281.6763006887427
 21
12.83333333333326
 72
     1
 10
281.6763006887427
 20
12.83333333333326
 11
282.6763006887427
 21
12.83333333333326
 72
     2
 10
282.6763006887427
 20
12.5
 40
0.3333333333333695
 50
270.0
 51
450.0
 73
     0
 72
     1
 10
282.6763006887427
 20
12.16666666666663
 11
281.6763006887427
 21
12.16666666666663
 72
     1
 10
281.6763006887427
 20
12.16666666666663
 11
281.6763006887427
 21
10.65463653264794
 72
     1
 10
281.6763006887427
 20
10.65463653264794
 11
282.5097265375795
 21
11.13545913774624
 72
     2
 10
282.6763006887427
 20
10.84673060906323
 40
0.3333333333333172
 50
240.0183606311678
 51
420.0183606311667
 73
     0
 72
     1
 10
282.8428748399058
 20
10.55800208038033
 11
281.5095415065725
 21
9.78877131114973
 72
     2
 10
281.3429673554093
 20
10.07749983983263
 40
0.3333333333332007
 50
60.01836063115814
 51
180.0
 73
     0
 72
     1
 10
281.0096340220761
 20
10.07749983983263
 11
281.0096340220761
 21
14.92250016016737
 72
     2
 10
281.3429673554093
 20
14.92250016016737
 40
0.3333333333333456
 50
180.0
 51
299.9816393688419
 73
     0
 72
     1
 10
281.5095415065725
 20
15.21122868885027
 11
282.8428748399058
 21
14.44199791961944
 72
     2
 10
282.6763006887427
 20
14.15326939093666
 40
0.3333333333333471
 50
299.9816393688436
 51
479.9816393688417
 73
     0
 97
       14
330
62
330
3CF
330
79
330
3CE
330
5B
330
30C
330
5C
330
5D
330
5E
330
30D
330
5F
330
60
330
61
330
30E
 75
     0
 76
     1
 98
        1
 10
0.0
 20
0.0
  0
HATCH
  5
430
330
1F
100
AcDbEntity
  8
1
  6
Continuous
 62
     7
100
AcDbHatch
 10
0.0
 20
0.0
 30
0.0
210
0.0
220
0.0
230
1.0
  2
SOLID
 70
     1
 71
     1
 91
        1
 92
        1
 93
        5
 72
     1
 10
275.0096340220759
 20
14.15326939093666
 11
275.0096340220759
 21
11.0392519172633
 72
     1
 10
275.0096340220759
 20
11.0392519172633
 11
275.0096340220759
 21
10.84673060906323
 72
     2
 10
274.6763006887427
 20
10.84673060906323
 40
0.3333333333333712
 50
0.0
 51
180.0
 73
     0
 72
     1
 10
274.3429673554093
 20
10.84673060906323
 11
274.3429673554093
 21
14.15326939093666
 72
     2
 10
274.6763006887427
 20
14.15326939093666
 40
0.3333333333332007
 50
180.0
 51
360.0
 73
     0
 97
        5
330
65
330
64
330
30F
330
63
330
310
 75
     0
 76
     1
 98
        1
 10
0.0
 20
0.0
  0
HATCH
  5
431
330
1F
100
AcDbEntity
  8
1
  6
Continuous
 62
     7
100
AcDbHatch
 10
0.0
 20
0.0
 30
0.0
210
0.0
220
0.0
230
1.0
  2
SOLID
 70
     1
 71
     1
 91
        1
 92
        1
 93
        7
 72
     1
 10
276.3429673554093
 20
14.92250016016737
 11
276.3429673554093
 21
10.2700211480327
 72
     1
 10
276.3429673554093
 20
10.2700211480327
 11
278.5095415065725
 21
9.020074522361597
 72
     2
 10
278.3429673554093
 20
8.731345993678701
 40
0.3333333333333709
 50
299.9816393688421
 51
479.9816393688507
 73
     0
 72
     1
 10
278.1763932042461
 20
8.442617464995806
 11
276.009819053083
 21
9.692564090666906
 72
     2
 10
276.3429673554093
 20
10.2700211480327
 40
0.6666666666666288
 50
119.981639368842
 51
179.9999999999896
 73
     0
 72
     1
 10
275.6763006887427
 20
10.27002114803258
 11
275.6763006887427
 21
14.92250016016737
 72
     2
 10
276.0096340220759
 20
14.92250016016737
 40
0.3333333333334281
 50
180.0
 51
360.0
 73
     0
 97
        7
330
68
330
67
330
311
330
66
330
3D2
330
69
330
312
 75
     0
 76
     1
 98
        1
 10
0.0
 20
0.0
  0
HATCH
  5
432
330
1F
100
AcDbEntity
  8
1
  6
Continuous
 62
     7
100
AcDbHatch
 10
0.0
 20
0.0
 30
0.0
210
0.0
220
0.0
230
1.0
  2
SOLID
 70
     1
 71
     1
 91
        1
 92
        1
 93
       16
 72
     2
 10
277.2746002345513
 20
15.73121731203457
 40
0.2649662124752854
 50
30.00000000001921
 51
180.0
 73
     1
 72
     1
 10
277.0096340220759
 20
15.73121731203457
 11
277.0096340220759
 21
12.5
 72
     1
 10
277.0096340220759
 20
12.5
 11
277.0096340220759
 21
10.84758507263291
 72
     2
 10
277.3429673554093
 20
10.84758507263291
 40
0.3333333333334281
 50
180.0
 51
360.0
 73
     1
 72
     1
 10
277.6763006887427
 20
10.84758507263291
 11
277.6763006887427
 21
12.5
 72
     1
 10
277.6763006887427
 20
12.5
 11
277.6763006887427
 21
14.23205080756884
 72
     1
 10
277.6763006887427
 20
14.23205080756884
 11
278.5319631214452
 21
12.75
 72
     2
 10
278.6763006887427
 20
12.83333333333326
 40
0.166666666666709
 50
209.9999999999622
 51
330.000000000028
 73
     1
 72
     1
 10
278.8206382560401
 20
12.75
 11
279.6763006887427
 21
14.23205080756884
 72
     1
 10
279.6763006887427
 20
14.23205080756884
 11
279.6763006887427
 21
12.5
 72
     1
 10
279.6763006887427
 20
12.5
 11
279.6763006887427
 21
9.308269070601796
 72
     2
 10
280.0096340220761
 20
9.308269070601796
 40
0.3333333333334281
 50
180.0
 51
360.0
 73
     1
 72
     1
 10
280.3429673554093
 20
9.308269070601796
 11
280.3429673554093
 21
15.73121731203457
 72
     2
 10
280.078001142934
 20
15.73121731203457
 40
0.2649662124753149
 50
0.0
 51
149.9999999999685
 73
     1
 72
     1
 10
279.848533671786
 20
15.86370041827229
 11
278.6763006887427
 21
13.83333333333326
 72
     1
 10
278.6763006887427
 20
13.83333333333326
 11
277.5040677056994
 21
15.86370041827229
 97
       16
330
6A
330
313
330
6B
330
314
330
6C
330
78
330
77
330
3D3
330
76
330
75
330
6D
330
315
330
6E
330
70
330
316
330
6F
 75
     0
 76
     1
 98
        1
 10
0.0
 20
0.0
  0
ENDSEC
  0
SECTION
  2
OBJECTS
  0
DICTIONARY
  5
C
330
0
100
AcDbDictionary
281
     1
  3
ACAD_GROUP
350
D
  3
ACAD_LAYOUT
350
1A
  3
ACAD_MATERIAL
350
3B
  3
ACAD_MLEADERSTYLE
350
435
  3
ACAD_MLINESTYLE
350
17
  3
ACAD_PLOTSETTINGS
350
19
  3
ACAD_PLOTSTYLENAME
350
E
  3
ACAD_VISUALSTYLE
350
2A
  3
AcDbVariableDictionary
350
433
  0
DICTIONARY
  5
D
102
{ACAD_REACTORS
330
C
102
}
330
C
100
AcDbDictionary
281
     1
  0
DICTIONARY
  5
1A
102
{ACAD_REACTORS
330
C
102
}
330
C
100
AcDbDictionary
281
     1
  3
Layout1
350
1E
  3
Layout2
350
26
  3
Model
350
22
  0
DICTIONARY
  5
3B
102
{ACAD_REACTORS
330
C
102
}
330
C
100
AcDbDictionary
281
     1
  3
ByBlock
350
3D
  3
ByLayer
350
3C
  3
Global
350
3E
  0
DICTIONARY
  5
435
102
{ACAD_REACTORS
330
C
102
}
330
C
100
AcDbDictionary
281
     1
  0
DICTIONARY
  5
17
102
{ACAD_REACTORS
330
C
102
}
330
C
100
AcDbDictionary
281
     1
  3
Standard
350
18
  0
DICTIONARY
  5
19
102
{ACAD_REACTORS
330
C
102
}
330
C
100
AcDbDictionary
281
     1
  0
ACDBDICTIONARYWDFLT
  5
E
102
{ACAD_REACTORS
330
C
102
}
330
C
100
AcDbDictionary
281
     1
  3
Normal
350
F
100
AcDbDictionaryWithDefault
340
F
  0
DICTIONARY
  5
2A
102
{ACAD_REACTORS
330
C
102
}
330
C
100
AcDbDictionary
281
     1
  3
2dWireframe
350
2F
  3
3D Hidden
350
31
  3
3dWireframe
350
30
  3
Basic
350
32
  3
Brighten
350
36
  3
ColorChange
350
3A
  3
Conceptual
350
34
  3
Dim
350
35
  3
Facepattern
350
39
  3
Flat
350
2B
  3
FlatWithEdges
350
2C
  3
Gouraud
350
2D
  3
GouraudWithEdges
350
2E
  3
Linepattern
350
38
  3
Realistic
350
33
  3
Thicken
350
37
  0
DICTIONARY
  5
433
102
{ACAD_REACTORS
330
C
102
}
330
C
100
AcDbDictionary
281
     1
  3
DIMASSOC
350
436
  3
HIDETEXT
350
437
  0
LAYOUT
  5
1E
102
{ACAD_REACTORS
330
1A
102
}
330
1A
100
AcDbPlotSettings
  1

  2
none_device
  4

  6

 40
0.0
 41
0.0
 42
0.0
 43
0.0
 44
0.0
 45
0.0
 46
0.0
 47
0.0
 48
0.0
 49
0.0
140
0.0
141
0.0
142
1.0
143
1.0
 70
   688
 72
     0
 73
     0
 74
     5
  7

 75
    16
147
1.0
148
0.0
149
0.0
100
AcDbLayout
  1
Layout1
 70
     1
 71
     1
 10
0.0
 20
0.0
 11
12.0
 21
9.0
 12
0.0
 22
0.0
 32
0.0
 14
1.00000000000000E+20
 24
1.00000000000000E+20
 34
1.00000000000000E+20
 15
-1.00000000000000E+20
 25
-1.00000000000000E+20
 35
-1.00000000000000E+20
146
0.0
 13
0.0
 23
0.0
 33
0.0
 16
1.0
 26
0.0
 36
0.0
 17
0.0
 27
1.0
 37
0.0
 76
     0
330
1B
  0
LAYOUT
  5
26
102
{ACAD_REACTORS
330
1A
102
}
330
1A
100
AcDbPlotSettings
  1

  2
none_device
  4

  6

 40
0.0
 41
0.0
 42
0.0
 43
0.0
 44
0.0
 45
0.0
 46
0.0
 47
0.0
 48
0.0
 49
0.0
140
0.0
141
0.0
142
1.0
143
1.0
 70
   688
 72
     0
 73
     0
 74
     5
  7

 75
    16
147
1.0
148
0.0
149
0.0
100
AcDbLayout
  1
Layout2
 70
     1
 71
     2
 10
0.0
 20
0.0
 11
0.0
 21
0.0
 12
0.0
 22
0.0
 32
0.0
 14
0.0
 24
0.0
 34
0.0
 15
0.0
 25
0.0
 35
0.0
146
0.0
 13
0.0
 23
0.0
 33
0.0
 16
1.0
 26
0.0
 36
0.0
 17
0.0
 27
1.0
 37
0.0
 76
     0
330
23
  0
LAYOUT
  5
22
102
{ACAD_REACTORS
330
1A
102
}
330
1A
100
AcDbPlotSettings
  1

  2
none_device
  4

  6

 40
0.0
 41
0.0
 42
0.0
 43
0.0
 44
0.0
 45
0.0
 46
0.0
 47
0.0
 48
0.0
 49
0.0
140
0.0
141
0.0
142
1.0
143
1.0
 70
  1712
 72
     0
 73
     0
 74
     0
  7

 75
     0
147
1.0
148
0.0
149
0.0
100
AcDbLayout
  1
Model
 70
     1
 71
     0
 10
0.0
 20
0.0
 11
12.0
 21
9.0
 12
0.0
 22
0.0
 32
0.0
 14
-0.00000000000011
 24
0.0
 34
0.0
 15
297.0
 25
210.0000000000001
 35
0.0
146
0.0
 13
0.0
 23
0.0
 33
0.0
 16
1.0
 26
0.0
 36
0.0
 17
0.0
 27
1.0
 37
0.0
 76
     0
330
1F
331
29
  0
MATERIAL
  5
3D
102
{ACAD_REACTORS
330
3B
102
}
102
{ACAD_XDICTIONARY
360
45A
102
}
330
3B
100
AcDbMaterial
  1
ByBlock
  0
MATERIAL
  5
3C
102
{ACAD_REACTORS
330
3B
102
}
102
{ACAD_XDICTIONARY
360
458
102
}
330
3B
100
AcDbMaterial
  1
ByLayer
  0
MATERIAL
  5
3E
102
{ACAD_REACTORS
330
3B
102
}
102
{ACAD_XDICTIONARY
360
45C
102
}
330
3B
100
AcDbMaterial
  1
Global
  0
MLINESTYLE
  5
18
102
{ACAD_REACTORS
330
17
102
}
330
17
100
AcDbMlineStyle
  2
Standard
 70
     0
  3

 62
   256
 51
90.0
 52
90.0
 71
     2
 49
0.5
 62
   256
  6
BYLAYER
 49
-0.5
 62
   256
  6
BYLAYER
  0
ACDBPLACEHOLDER
  5
F
102
{ACAD_REACTORS
330
E
102
}
330
E
  0
VISUALSTYLE
  5
2F
102
{ACAD_REACTORS
330
2A
102
}
102
{ACAD_XDICTIONARY
360
440
102
}
330
2A
100
AcDbVisualStyle
  2
2dWireframe
 70
     4
 71
     0
 72
     2
 73
     0
 90
        0
 40
-0.6
 41
-30.0
 62
     5
 63
     7
 74
     1
 91
        4
 64
     7
 65
   257
 75
     1
175
     1
 42
1.0
 92
        0
 66
   257
 43
1.0
 76
     1
 77
     6
 78
     2
 67
     7
 79
     5
170
     0
171
     0
290
     0
174
     0
 93
        1
 44
0.0
173
     0
291
     0
 45
0.0
1001
ACAD
1000
AcDbSavedByObjectVersion
1070
     0
  0
VISUALSTYLE
  5
31
102
{ACAD_REACTORS
330
2A
102
}
102
{ACAD_XDICTIONARY
360
444
102
}
330
2A
100
AcDbVisualStyle
  2
3D Hidden
 70
     6
 71
     1
 72
     2
 73
     2
 90
        0
 40
-0.6
 41
-30.0
 62
     5
 63
     7
 74
     2
 91
        2
 64
     7
 65
   257
 75
     2
175
     1
 42
40.0
 92
        0
 66
   257
 43
1.0
 76
     1
 77
     6
 78
     2
 67
     7
 79
     3
170
     0
171
     0
290
     0
174
     0
 93
        1
 44
0.0
173
     0
291
     0
 45
0.0
1001
ACAD
1000
AcDbSavedByObjectVersion
1070
     0
  0
VISUALSTYLE
  5
30
102
{ACAD_REACTORS
330
2A
102
}
102
{ACAD_XDICTIONARY
360
442
102
}
330
2A
100
AcDbVisualStyle
  2
3dWireframe
 70
     5
 71
     0
 72
     2
 73
     0
 90
        0
 40
-0.6
 41
-30.0
 62
     5
 63
     7
 74
     1
 91
        4
 64
     7
 65
   257
 75
     1
175
     1
 42
1.0
 92
        0
 66
   257
 43
1.0
 76
     1
 77
     6
 78
     2
 67
     7
 79
     5
170
     0
171
     0
290
     0
174
     0
 93
        1
 44
0.0
173
     0
291
     0
 45
0.0
1001
ACAD
1000
AcDbSavedByObjectVersion
1070
     0
  0
VISUALSTYLE
  5
32
102
{ACAD_REACTORS
330
2A
102
}
102
{ACAD_XDICTIONARY
360
446
102
}
330
2A
100
AcDbVisualStyle
  2
Basic
 70
     7
 71
     1
 72
     0
 73
     1
 90
        0
 40
-0.6
 41
-30.0
 62
     5
 63
     7
 74
     0
 91
        4
 64
     7
 65
   257
 75
     1
175
     1
 42
1.0
 92
        8
 66
     7
 43
1.0
 76
     1
 77
     6
 78
     2
 67
     7
 79
     5
170
     0
171
     0
290
     0
174
     0
 93
        1
 44
0.0
173
     0
291
     1
 45
0.0
1001
ACAD
1000
AcDbSavedByObjectVersion
1070
     0
  0
VISUALSTYLE
  5
36
102
{ACAD_REACTORS
330
2A
102
}
102
{ACAD_XDICTIONARY
360
44E
102
}
330
2A
100
AcDbVisualStyle
  2
Brighten
 70
    12
 71
     2
 72
     2
 73
     0
 90
        0
 40
-0.6
 41
-30.0
 62
     5
 63
     7
 74
     1
 91
        4
 64
     7
 65
   257
 75
     1
175
     1
 42
1.0
 92
        8
 66
     7
 43
1.0
 76
     1
 77
     6
 78
     2
 67
     7
 79
     5
170
     0
171
     0
290
     0
174
     0
 93
        1
 44
50.0
173
     0
291
     1
 45
0.0
1001
ACAD
1000
AcDbSavedByObjectVersion
1070
     0
  0
VISUALSTYLE
  5
3A
102
{ACAD_REACTORS
330
2A
102
}
102
{ACAD_XDICTIONARY
360
456
102
}
330
2A
100
AcDbVisualStyle
  2
ColorChange
 70
    16
 71
     2
 72
     2
 73
     3
 90
        0
 40
-0.6
 41
-30.0
 62
     5
 63
     8
 74
     1
 91
        4
 64
     7
 65
   257
 75
     1
175
     1
 42
1.0
 92
        8
 66
     8
 43
1.0
 76
     1
 77
     6
 78
     2
 67
     7
 79
     5
170
     0
171
     0
290
     0
174
     0
 93
        1
 44
0.0
173
     0
291
     1
 45
0.0
1001
ACAD
1000
AcDbSavedByObjectVersion
1070
     0
  0
VISUALSTYLE
  5
34
102
{ACAD_REACTORS
330
2A
102
}
102
{ACAD_XDICTIONARY
360
44A
102
}
330
2A
100
AcDbVisualStyle
  2
Conceptual
 70
     9
 71
     3
 72
     2
 73
     0
 90
        0
 40
-0.6
 41
-30.0
 62
     5
 63
     7
 74
     2
 91
        2
 64
     7
 65
   257
 75
     1
175
     1
 42
40.0
 92
        8
 66
     7
 43
1.0
 76
     1
 77
     6
 78
     2
 67
     7
 79
     3
170
     0
171
     0
290
     0
174
     0
 93
        1
 44
0.0
173
     0
291
     0
 45
0.0
1001
ACAD
1000
AcDbSavedByObjectVersion
1070
     0
  0
VISUALSTYLE
  5
35
102
{ACAD_REACTORS
330
2A
102
}
102
{ACAD_XDICTIONARY
360
44C
102
}
330
2A
100
AcDbVisualStyle
  2
Dim
 70
    11
 71
     2
 72
     2
 73
     0
 90
        0
 40
-0.6
 41
-30.0
 62
     5
 63
     7
 74
     1
 91
        4
 64
     7
 65
   257
 75
     1
175
     1
 42
1.0
 92
        8
 66
     7
 43
1.0
 76
     1
 77
     6
 78
     2
 67
     7
 79
     5
170
     0
171
     0
290
     0
174
     0
 93
        1
 44
-50.0
173
     0
291
     1
 45
0.0
1001
ACAD
1000
AcDbSavedByObjectVersion
1070
     0
  0
VISUALSTYLE
  5
39
102
{ACAD_REACTORS
330
2A
102
}
102
{ACAD_XDICTIONARY
360
454
102
}
330
2A
100
AcDbVisualStyle
  2
Facepattern
 70
    15
 71
     2
 72
     2
 73
     0
 90
        0
 40
-0.6
 41
-30.0
 62
     5
 63
     7
 74
     1
 91
        4
 64
     7
 65
   257
 75
     1
175
     1
 42
1.0
 92
        8
 66
     7
 43
1.0
 76
     1
 77
     6
 78
     2
 67
     7
 79
     5
170
     0
171
     0
290
     0
174
     0
 93
        1
 44
0.0
173
     0
291
     1
 45
0.0
1001
ACAD
1000
AcDbSavedByObjectVersion
1070
     0
  0
VISUALSTYLE
  5
2B
102
{ACAD_REACTORS
330
2A
102
}
102
{ACAD_XDICTIONARY
360
438
102
}
330
2A
100
AcDbVisualStyle
  2
Flat
 70
     0
 71
     2
 72
     1
 73
     1
 90
        2
 40
-0.6
 41
30.0
 62
     5
 63
     7
 74
     0
 91
        4
 64
     7
 65
   257
 75
     1
175
     1
 42
1.0
 92
        8
 66
     7
 43
1.0
 76
     1
 77
     6
 78
     2
 67
     7
 79
     5
170
     0
171
     0
290
     0
174
     0
 93
       13
 44
0.0
173
     0
291
     1
 45
0.0
1001
ACAD
1000
AcDbSavedByObjectVersion
1070
     0
  0
VISUALSTYLE
  5
2C
102
{ACAD_REACTORS
330
2A
102
}
102
{ACAD_XDICTIONARY
360
43A
102
}
330
2A
100
AcDbVisualStyle
  2
FlatWithEdges
 70
     1
 71
     2
 72
     1
 73
     1
 90
        2
 40
-0.6
 41
30.0
 62
     5
 63
     7
 74
     1
 91
        4
 64
     7
 65
   257
 75
     1
175
     1
 42
1.0
 92
        0
 66
   257
 43
1.0
 76
     1
 77
     6
 78
     2
 67
     7
 79
     5
170
     0
171
     0
290
     0
174
     0
 93
       13
 44
0.0
173
     0
291
     1
 45
0.0
1001
ACAD
1000
AcDbSavedByObjectVersion
1070
     0
  0
VISUALSTYLE
  5
2D
102
{ACAD_REACTORS
330
2A
102
}
102
{ACAD_XDICTIONARY
360
43C
102
}
330
2A
100
AcDbVisualStyle
  2
Gouraud
 70
     2
 71
     2
 72
     2
 73
     1
 90
        2
 40
-0.6
 41
30.0
 62
     5
 63
     7
 74
     0
 91
        4
 64
     7
 65
   257
 75
     1
175
     1
 42
1.0
 92
        0
 66
     7
 43
1.0
 76
     1
 77
     6
 78
     2
 67
     7
 79
     5
170
     0
171
     0
290
     0
174
     0
 93
       13
 44
0.0
173
     0
291
     1
 45
0.0
1001
ACAD
1000
AcDbSavedByObjectVersion
1070
     0
  0
VISUALSTYLE
  5
2E
102
{ACAD_REACTORS
330
2A
102
}
102
{ACAD_XDICTIONARY
360
43E
102
}
330
2A
100
AcDbVisualStyle
  2
GouraudWithEdges
 70
     3
 71
     2
 72
     2
 73
     1
 90
        2
 40
-0.6
 41
30.0
 62
     5
 63
     7
 74
     1
 91
        4
 64
     7
 65
   257
 75
     1
175
     1
 42
1.0
 92
        0
 66
   257
 43
1.0
 76
     1
 77
     6
 78
     2
 67
     7
 79
     5
170
     0
171
     0
290
     0
174
     0
 93
       13
 44
0.0
173
     0
291
     1
 45
0.0
1001
ACAD
1000
AcDbSavedByObjectVersion
1070
     0
  0
VISUALSTYLE
  5
38
102
{ACAD_REACTORS
330
2A
102
}
102
{ACAD_XDICTIONARY
360
452
102
}
330
2A
100
AcDbVisualStyle
  2
Linepattern
 70
    14
 71
     2
 72
     2
 73
     0
 90
        0
 40
-0.6
 41
-30.0
 62
     5
 63
     7
 74
     1
 91
        4
 64
     7
 65
   257
 75
     7
175
     7
 42
1.0
 92
        8
 66
     7
 43
1.0
 76
     1
 77
     6
 78
     2
 67
     7
 79
     5
170
     0
171
     0
290
     0
174
     0
 93
        1
 44
0.0
173
     0
291
     1
 45
0.0
1001
ACAD
1000
AcDbSavedByObjectVersion
1070
     0
  0
VISUALSTYLE
  5
33
102
{ACAD_REACTORS
330
2A
102
}
102
{ACAD_XDICTIONARY
360
448
102
}
330
2A
100
AcDbVisualStyle
  2
Realistic
 70
     8
 71
     2
 72
     2
 73
     0
 90
        0
 40
-0.6
 41
-30.0
 62
     5
 63
     7
 74
     1
 91
        0
 64
     7
 65
   257
 75
     1
175
     1
 42
1.0
 92
        8
 66
     8
 43
1.0
 76
     1
 77
     6
 78
     2
 67
     7
 79
     5
170
     0
171
     0
290
     0
174
     0
 93
       13
 44
0.0
173
     0
291
     0
 45
0.0
1001
ACAD
1000
AcDbSavedByObjectVersion
1070
     0
  0
VISUALSTYLE
  5
37
102
{ACAD_REACTORS
330
2A
102
}
102
{ACAD_XDICTIONARY
360
450
102
}
330
2A
100
AcDbVisualStyle
  2
Thicken
 70
    13
 71
     2
 72
     2
 73
     0
 90
        0
 40
-0.6
 41
-30.0
 62
     5
 63
     7
 74
     1
 91
        4
 64
     7
 65
   257
 75
     1
175
     1
 42
1.0
 92
       12
 66
     7
 43
1.0
 76
     1
 77
     6
 78
     2
 67
     7
 79
     5
170
     0
171
     0
290
     0
174
     0
 93
        1
 44
0.0
173
     0
291
     1
 45
0.0
1001
ACAD
1000
AcDbSavedByObjectVersion
1070
     0
  0
DICTIONARYVAR
  5
436
102
{ACAD_REACTORS
330
433
102
}
330
433
100
DictionaryVariables
280
     0
  1
2
  0
DICTIONARYVAR
  5
437
102
{ACAD_REACTORS
330
433
102
}
330
433
100
DictionaryVariables
280
     0
  1
1
  0
DICTIONARY
  5
45A
330
3D
100
AcDbDictionary
280
     1
281
     1
  3
ACAD_XREC_ROUNDTRIP
360
45B
  0
DICTIONARY
  5
458
330
3C
100
AcDbDictionary
280
     1
281
     1
  3
ACAD_XREC_ROUNDTRIP
360
459
  0
DICTIONARY
  5
45C
330
3E
100
AcDbDictionary
280
     1
281
     1
  3
ACAD_XREC_ROUNDTRIP
360
45D
  0
DICTIONARY
  5
440
330
2F
100
AcDbDictionary
280
     1
281
     1
  3
ACAD_XREC_ROUNDTRIP
360
441
  0
DICTIONARY
  5
444
330
31
100
AcDbDictionary
280
     1
281
     1
  3
ACAD_XREC_ROUNDTRIP
360
445
  0
DICTIONARY
  5
442
330
30
100
AcDbDictionary
280
     1
281
     1
  3
ACAD_XREC_ROUNDTRIP
360
443
  0
DICTIONARY
  5
446
330
32
100
AcDbDictionary
280
     1
281
     1
  3
ACAD_XREC_ROUNDTRIP
360
447
  0
DICTIONARY
  5
44E
330
36
100
AcDbDictionary
280
     1
281
     1
  3
ACAD_XREC_ROUNDTRIP
360
44F
  0
DICTIONARY
  5
456
330
3A
100
AcDbDictionary
280
     1
281
     1
  3
ACAD_XREC_ROUNDTRIP
360
457
  0
DICTIONARY
  5
44A
330
34
100
AcDbDictionary
280
     1
281
     1
  3
ACAD_XREC_ROUNDTRIP
360
44B
  0
DICTIONARY
  5
44C
330
35
100
AcDbDictionary
280
     1
281
     1
  3
ACAD_XREC_ROUNDTRIP
360
44D
  0
DICTIONARY
  5
454
330
39
100
AcDbDictionary
280
     1
281
     1
  3
ACAD_XREC_ROUNDTRIP
360
455
  0
DICTIONARY
  5
438
330
2B
100
AcDbDictionary
280
     1
281
     1
  3
ACAD_XREC_ROUNDTRIP
360
439
  0
DICTIONARY
  5
43A
330
2C
100
AcDbDictionary
280
     1
281
     1
  3
ACAD_XREC_ROUNDTRIP
360
43B
  0
DICTIONARY
  5
43C
330
2D
100
AcDbDictionary
280
     1
281
     1
  3
ACAD_XREC_ROUNDTRIP
360
43D
  0
DICTIONARY
  5
43E
330
2E
100
AcDbDictionary
280
     1
281
     1
  3
ACAD_XREC_ROUNDTRIP
360
43F
  0
DICTIONARY
  5
452
330
38
100
AcDbDictionary
280
     1
281
     1
  3
ACAD_XREC_ROUNDTRIP
360
453
  0
DICTIONARY
  5
448
330
33
100
AcDbDictionary
280
     1
281
     1
  3
ACAD_XREC_ROUNDTRIP
360
449
  0
DICTIONARY
  5
450
330
37
100
AcDbDictionary
280
     1
281
     1
  3
ACAD_XREC_ROUNDTRIP
360
451
  0
XRECORD
  5
45B
102
{ACAD_REACTORS
330
45A
102
}
330
45A
100
AcDbXrecord
280
     1
102
MATERIAL
148
0.0
149
0.0
149
0.0
 93
        0
 94
      127
282
     0
 72
     1
 77
     1
171
     1
175
     1
179
     1
273
     0
  0
XRECORD
  5
459
102
{ACAD_REACTORS
330
458
102
}
330
458
100
AcDbXrecord
280
     1
102
MATERIAL
148
0.0
149
0.0
149
0.0
 93
        0
 94
      127
282
     0
 72
     1
 77
     1
171
     1
175
     1
179
     1
273
     0
  0
XRECORD
  5
45D
102
{ACAD_REACTORS
330
45C
102
}
330
45C
100
AcDbXrecord
280
     1
102
MATERIAL
148
0.0
149
0.0
149
0.0
 93
        0
 94
      127
282
     0
 72
     1
 77
     1
171
     1
175
     1
179
     1
273
     0
  0
XRECORD
  5
441
102
{ACAD_REACTORS
330
440
102
}
330
440
100
AcDbXrecord
280
     1
102
RTVSPropertyOp0
 70
     1
102
RTVSPropertyOp1
 70
     1
102
RTVSPropertyOp2
 70
     1
102
RTVSPropertyOp3
 70
     1
102
RTVSPropertyOp4
 70
     1
102
RTVSPropertyOp5
 70
     1
102
RTVSPropertyOp6
 70
     1
102
RTVSPropertyOp7
 70
     1
102
RTVSPropertyOp8
 70
     1
102
RTVSPropertyOp9
 70
     1
102
RTVSPropertyOp10
 70
     1
102
RTVSPropertyOp11
 70
     1
102
RTVSPropertyOp12
 70
     1
102
RTVSPropertyOp13
 70
     1
102
RTVSPropertyOp14
 70
     1
102
RTVSPropertyOp15
 70
     1
102
RTVSPropertyOp16
 70
     1
102
RTVSPropertyOp17
 70
     1
102
RTVSPropertyOp18
 70
     1
102
RTVSPropertyOp19
 70
     1
102
RTVSPropertyOp20
 70
     1
102
RTVSPropertyOp21
 70
     1
102
RTVSPropertyOp22
 70
     1
102
RTVSPropertyOp23
 70
     1
102
RTVSPropertyOp24
 70
     1
102
RTVSPropertyOp25
 70
     1
102
RTVSPropertyOp26
 70
     1
102
RTVSPropertyOp27
 70
     1
102
RTVSPropertyOp28
 70
     1
102
RTVSPropertyOp29
 70
     1
102
RTVSPropertyOp30
 70
     1
102
RTVSPropertyOp31
 70
     1
102
RTVSPropertyOp32
 70
     1
  0
XRECORD
  5
445
102
{ACAD_REACTORS
330
444
102
}
330
444
100
AcDbXrecord
280
     1
102
RTVSPropertyOp0
 70
     1
102
RTVSPropertyOp1
 70
     1
102
RTVSPropertyOp2
 70
     1
102
RTVSPropertyOp3
 70
     1
102
RTVSPropertyOp4
 70
     1
102
RTVSPropertyOp5
 70
     1
102
RTVSPropertyOp6
 70
     1
102
RTVSPropertyOp7
 70
     1
102
RTVSPropertyOp8
 70
     1
102
RTVSPropertyOp9
 70
     1
102
RTVSPropertyOp10
 70
     1
102
RTVSPropertyOp11
 70
     1
102
RTVSPropertyOp12
 70
     1
102
RTVSPropertyOp13
 70
     1
102
RTVSPropertyOp14
 70
     1
102
RTVSPropertyOp15
 70
     1
102
RTVSPropertyOp16
 70
     1
102
RTVSPropertyOp17
 70
     1
102
RTVSPropertyOp18
 70
     1
102
RTVSPropertyOp19
 70
     1
102
RTVSPropertyOp20
 70
     1
102
RTVSPropertyOp21
 70
     1
102
RTVSPropertyOp22
 70
     1
102
RTVSPropertyOp23
 70
     1
102
RTVSPropertyOp24
 70
     1
102
RTVSPropertyOp25
 70
     1
102
RTVSPropertyOp26
 70
     1
102
RTVSPropertyOp27
 70
     1
102
RTVSPropertyOp28
 70
     1
102
RTVSPropertyOp29
 70
     1
102
RTVSPropertyOp30
 70
     1
102
RTVSPropertyOp31
 70
     1
102
RTVSPropertyOp32
 70
     1
  0
XRECORD
  5
443
102
{ACAD_REACTORS
330
442
102
}
330
442
100
AcDbXrecord
280
     1
102
RTVSPropertyOp0
 70
     1
102
RTVSPropertyOp1
 70
     1
102
RTVSPropertyOp2
 70
     1
102
RTVSPropertyOp3
 70
     1
102
RTVSPropertyOp4
 70
     1
102
RTVSPropertyOp5
 70
     1
102
RTVSPropertyOp6
 70
     1
102
RTVSPropertyOp7
 70
     1
102
RTVSPropertyOp8
 70
     1
102
RTVSPropertyOp9
 70
     1
102
RTVSPropertyOp10
 70
     1
102
RTVSPropertyOp11
 70
     1
102
RTVSPropertyOp12
 70
     1
102
RTVSPropertyOp13
 70
     1
102
RTVSPropertyOp14
 70
     1
102
RTVSPropertyOp15
 70
     1
102
RTVSPropertyOp16
 70
     1
102
RTVSPropertyOp17
 70
     1
102
RTVSPropertyOp18
 70
     1
102
RTVSPropertyOp19
 70
     1
102
RTVSPropertyOp20
 70
     1
102
RTVSPropertyOp21
 70
     1
102
RTVSPropertyOp22
 70
     1
102
RTVSPropertyOp23
 70
     1
102
RTVSPropertyOp24
 70
     1
102
RTVSPropertyOp25
 70
     1
102
RTVSPropertyOp26
 70
     1
102
RTVSPropertyOp27
 70
     1
102
RTVSPropertyOp28
 70
     1
102
RTVSPropertyOp29
 70
     1
102
RTVSPropertyOp30
 70
     1
102
RTVSPropertyOp31
 70
     1
102
RTVSPropertyOp32
 70
     1
  0
XRECORD
  5
447
102
{ACAD_REACTORS
330
446
102
}
330
446
100
AcDbXrecord
280
     1
102
RTVSPropertyOp0
 70
     1
102
RTVSPropertyOp1
 70
     1
102
RTVSPropertyOp2
 70
     1
102
RTVSPropertyOp3
 70
     1
102
RTVSPropertyOp4
 70
     1
102
RTVSPropertyOp5
 70
     1
102
RTVSPropertyOp6
 70
     1
102
RTVSPropertyOp7
 70
     1
102
RTVSPropertyOp8
 70
     1
102
RTVSPropertyOp9
 70
     1
102
RTVSPropertyOp10
 70
     1
102
RTVSPropertyOp11
 70
     1
102
RTVSPropertyOp12
 70
     1
102
RTVSPropertyOp13
 70
     1
102
RTVSPropertyOp14
 70
     1
102
RTVSPropertyOp15
 70
     1
102
RTVSPropertyOp16
 70
     1
102
RTVSPropertyOp17
 70
     1
102
RTVSPropertyOp18
 70
     1
102
RTVSPropertyOp19
 70
     1
102
RTVSPropertyOp20
 70
     1
102
RTVSPropertyOp21
 70
     1
102
RTVSPropertyOp22
 70
     1
102
RTVSPropertyOp23
 70
     1
102
RTVSPropertyOp24
 70
     1
102
RTVSPropertyOp25
 70
     1
102
RTVSPropertyOp26
 70
     1
102
RTVSPropertyOp27
 70
     1
102
RTVSPropertyOp28
 70
     1
102
RTVSPropertyOp29
 70
     1
102
RTVSPropertyOp30
 70
     1
102
RTVSPropertyOp31
 70
     1
102
RTVSPropertyOp32
 70
     1
  0
XRECORD
  5
44F
102
{ACAD_REACTORS
330
44E
102
}
330
44E
100
AcDbXrecord
280
     1
102
RTVSPropertyOp0
 70
     1
102
RTVSPropertyOp1
 70
     1
102
RTVSPropertyOp2
 70
     1
102
RTVSPropertyOp3
 70
     1
102
RTVSPropertyOp4
 70
     1
102
RTVSPropertyOp5
 70
     1
102
RTVSPropertyOp6
 70
     1
102
RTVSPropertyOp7
 70
     1
102
RTVSPropertyOp8
 70
     1
102
RTVSPropertyOp9
 70
     1
102
RTVSPropertyOp10
 70
     1
102
RTVSPropertyOp11
 70
     1
102
RTVSPropertyOp12
 70
     1
102
RTVSPropertyOp13
 70
     1
102
RTVSPropertyOp14
 70
     1
102
RTVSPropertyOp15
 70
     1
102
RTVSPropertyOp16
 70
     1
102
RTVSPropertyOp17
 70
     1
102
RTVSPropertyOp18
 70
     1
102
RTVSPropertyOp19
 70
     1
102
RTVSPropertyOp20
 70
     1
102
RTVSPropertyOp21
 70
     1
102
RTVSPropertyOp22
 70
     1
102
RTVSPropertyOp23
 70
     1
102
RTVSPropertyOp24
 70
     1
102
RTVSPropertyOp25
 70
     1
102
RTVSPropertyOp26
 70
     1
102
RTVSPropertyOp27
 70
     1
102
RTVSPropertyOp28
 70
     1
102
RTVSPropertyOp29
 70
     1
102
RTVSPropertyOp30
 70
     1
102
RTVSPropertyOp31
 70
     1
102
RTVSPropertyOp32
 70
     1
  0
XRECORD
  5
457
102
{ACAD_REACTORS
330
456
102
}
330
456
100
AcDbXrecord
280
     1
102
RTVSPropertyOp0
 70
     1
102
RTVSPropertyOp1
 70
     1
102
RTVSPropertyOp2
 70
     1
102
RTVSPropertyOp3
 70
     1
102
RTVSPropertyOp4
 70
     1
102
RTVSPropertyOp5
 70
     1
102
RTVSPropertyOp6
 70
     1
102
RTVSPropertyOp7
 70
     1
102
RTVSPropertyOp8
 70
     1
102
RTVSPropertyOp9
 70
     1
102
RTVSPropertyOp10
 70
     1
102
RTVSPropertyOp11
 70
     1
102
RTVSPropertyOp12
 70
     1
102
RTVSPropertyOp13
 70
     1
102
RTVSPropertyOp14
 70
     1
102
RTVSPropertyOp15
 70
     1
102
RTVSPropertyOp16
 70
     1
102
RTVSPropertyOp17
 70
     1
102
RTVSPropertyOp18
 70
     1
102
RTVSPropertyOp19
 70
     1
102
RTVSPropertyOp20
 70
     1
102
RTVSPropertyOp21
 70
     1
102
RTVSPropertyOp22
 70
     1
102
RTVSPropertyOp23
 70
     1
102
RTVSPropertyOp24
 70
     1
102
RTVSPropertyOp25
 70
     1
102
RTVSPropertyOp26
 70
     1
102
RTVSPropertyOp27
 70
     1
102
RTVSPropertyOp28
 70
     1
102
RTVSPropertyOp29
 70
     1
102
RTVSPropertyOp30
 70
     1
102
RTVSPropertyOp31
 70
     1
102
RTVSPropertyOp32
 70
     1
  0
XRECORD
  5
44B
102
{ACAD_REACTORS
330
44A
102
}
330
44A
100
AcDbXrecord
280
     1
102
RTVSPropertyOp0
 70
     1
102
RTVSPropertyOp1
 70
     1
102
RTVSPropertyOp2
 70
     1
102
RTVSPropertyOp3
 70
     1
102
RTVSPropertyOp4
 70
     1
102
RTVSPropertyOp5
 70
     1
102
RTVSPropertyOp6
 70
     1
102
RTVSPropertyOp7
 70
     1
102
RTVSPropertyOp8
 70
     1
102
RTVSPropertyOp9
 70
     1
102
RTVSPropertyOp10
 70
     1
102
RTVSPropertyOp11
 70
     1
102
RTVSPropertyOp12
 70
     1
102
RTVSPropertyOp13
 70
     1
102
RTVSPropertyOp14
 70
     1
102
RTVSPropertyOp15
 70
     1
102
RTVSPropertyOp16
 70
     1
102
RTVSPropertyOp17
 70
     1
102
RTVSPropertyOp18
 70
     1
102
RTVSPropertyOp19
 70
     1
102
RTVSPropertyOp20
 70
     1
102
RTVSPropertyOp21
 70
     1
102
RTVSPropertyOp22
 70
     1
102
RTVSPropertyOp23
 70
     1
102
RTVSPropertyOp24
 70
     1
102
RTVSPropertyOp25
 70
     1
102
RTVSPropertyOp26
 70
     1
102
RTVSPropertyOp27
 70
     1
102
RTVSPropertyOp28
 70
     1
102
RTVSPropertyOp29
 70
     1
102
RTVSPropertyOp30
 70
     1
102
RTVSPropertyOp31
 70
     1
102
RTVSPropertyOp32
 70
     1
  0
XRECORD
  5
44D
102
{ACAD_REACTORS
330
44C
102
}
330
44C
100
AcDbXrecord
280
     1
102
RTVSPropertyOp0
 70
     1
102
RTVSPropertyOp1
 70
     1
102
RTVSPropertyOp2
 70
     1
102
RTVSPropertyOp3
 70
     1
102
RTVSPropertyOp4
 70
     1
102
RTVSPropertyOp5
 70
     1
102
RTVSPropertyOp6
 70
     1
102
RTVSPropertyOp7
 70
     1
102
RTVSPropertyOp8
 70
     1
102
RTVSPropertyOp9
 70
     1
102
RTVSPropertyOp10
 70
     1
102
RTVSPropertyOp11
 70
     1
102
RTVSPropertyOp12
 70
     1
102
RTVSPropertyOp13
 70
     1
102
RTVSPropertyOp14
 70
     1
102
RTVSPropertyOp15
 70
     1
102
RTVSPropertyOp16
 70
     1
102
RTVSPropertyOp17
 70
     1
102
RTVSPropertyOp18
 70
     1
102
RTVSPropertyOp19
 70
     1
102
RTVSPropertyOp20
 70
     1
102
RTVSPropertyOp21
 70
     1
102
RTVSPropertyOp22
 70
     1
102
RTVSPropertyOp23
 70
     1
102
RTVSPropertyOp24
 70
     1
102
RTVSPropertyOp25
 70
     1
102
RTVSPropertyOp26
 70
     1
102
RTVSPropertyOp27
 70
     1
102
RTVSPropertyOp28
 70
     1
102
RTVSPropertyOp29
 70
     1
102
RTVSPropertyOp30
 70
     1
102
RTVSPropertyOp31
 70
     1
102
RTVSPropertyOp32
 70
     1
  0
XRECORD
  5
455
102
{ACAD_REACTORS
330
454
102
}
330
454
100
AcDbXrecord
280
     1
102
RTVSPropertyOp0
 70
     1
102
RTVSPropertyOp1
 70
     1
102
RTVSPropertyOp2
 70
     1
102
RTVSPropertyOp3
 70
     1
102
RTVSPropertyOp4
 70
     1
102
RTVSPropertyOp5
 70
     1
102
RTVSPropertyOp6
 70
     1
102
RTVSPropertyOp7
 70
     1
102
RTVSPropertyOp8
 70
     1
102
RTVSPropertyOp9
 70
     1
102
RTVSPropertyOp10
 70
     1
102
RTVSPropertyOp11
 70
     1
102
RTVSPropertyOp12
 70
     1
102
RTVSPropertyOp13
 70
     1
102
RTVSPropertyOp14
 70
     1
102
RTVSPropertyOp15
 70
     1
102
RTVSPropertyOp16
 70
     1
102
RTVSPropertyOp17
 70
     1
102
RTVSPropertyOp18
 70
     1
102
RTVSPropertyOp19
 70
     1
102
RTVSPropertyOp20
 70
     1
102
RTVSPropertyOp21
 70
     1
102
RTVSPropertyOp22
 70
     1
102
RTVSPropertyOp23
 70
     1
102
RTVSPropertyOp24
 70
     1
102
RTVSPropertyOp25
 70
     1
102
RTVSPropertyOp26
 70
     1
102
RTVSPropertyOp27
 70
     1
102
RTVSPropertyOp28
 70
     1
102
RTVSPropertyOp29
 70
     1
102
RTVSPropertyOp30
 70
     1
102
RTVSPropertyOp31
 70
     1
102
RTVSPropertyOp32
 70
     1
  0
XRECORD
  5
439
102
{ACAD_REACTORS
330
438
102
}
330
438
100
AcDbXrecord
280
     1
102
RTVSPropertyOp0
 70
     1
102
RTVSPropertyOp1
 70
     1
102
RTVSPropertyOp2
 70
     1
102
RTVSPropertyOp3
 70
     1
102
RTVSPropertyOp4
 70
     1
102
RTVSPropertyOp5
 70
     1
102
RTVSPropertyOp6
 70
     1
102
RTVSPropertyOp7
 70
     1
102
RTVSPropertyOp8
 70
     1
102
RTVSPropertyOp9
 70
     1
102
RTVSPropertyOp10
 70
     1
102
RTVSPropertyOp11
 70
     1
102
RTVSPropertyOp12
 70
     1
102
RTVSPropertyOp13
 70
     1
102
RTVSPropertyOp14
 70
     1
102
RTVSPropertyOp15
 70
     1
102
RTVSPropertyOp16
 70
     1
102
RTVSPropertyOp17
 70
     1
102
RTVSPropertyOp18
 70
     1
102
RTVSPropertyOp19
 70
     1
102
RTVSPropertyOp20
 70
     1
102
RTVSPropertyOp21
 70
     1
102
RTVSPropertyOp22
 70
     1
102
RTVSPropertyOp23
 70
     1
102
RTVSPropertyOp24
 70
     1
102
RTVSPropertyOp25
 70
     1
102
RTVSPropertyOp26
 70
     1
102
RTVSPropertyOp27
 70
     1
102
RTVSPropertyOp28
 70
     1
102
RTVSPropertyOp29
 70
     1
102
RTVSPropertyOp30
 70
     1
102
RTVSPropertyOp31
 70
     1
102
RTVSPropertyOp32
 70
     1
  0
XRECORD
  5
43B
102
{ACAD_REACTORS
330
43A
102
}
330
43A
100
AcDbXrecord
280
     1
102
RTVSPropertyOp0
 70
     1
102
RTVSPropertyOp1
 70
     1
102
RTVSPropertyOp2
 70
     1
102
RTVSPropertyOp3
 70
     1
102
RTVSPropertyOp4
 70
     1
102
RTVSPropertyOp5
 70
     1
102
RTVSPropertyOp6
 70
     1
102
RTVSPropertyOp7
 70
     1
102
RTVSPropertyOp8
 70
     1
102
RTVSPropertyOp9
 70
     1
102
RTVSPropertyOp10
 70
     1
102
RTVSPropertyOp11
 70
     1
102
RTVSPropertyOp12
 70
     1
102
RTVSPropertyOp13
 70
     1
102
RTVSPropertyOp14
 70
     1
102
RTVSPropertyOp15
 70
     1
102
RTVSPropertyOp16
 70
     1
102
RTVSPropertyOp17
 70
     1
102
RTVSPropertyOp18
 70
     1
102
RTVSPropertyOp19
 70
     1
102
RTVSPropertyOp20
 70
     1
102
RTVSPropertyOp21
 70
     1
102
RTVSPropertyOp22
 70
     1
102
RTVSPropertyOp23
 70
     1
102
RTVSPropertyOp24
 70
     1
102
RTVSPropertyOp25
 70
     1
102
RTVSPropertyOp26
 70
     1
102
RTVSPropertyOp27
 70
     1
102
RTVSPropertyOp28
 70
     1
102
RTVSPropertyOp29
 70
     1
102
RTVSPropertyOp30
 70
     1
102
RTVSPropertyOp31
 70
     1
102
RTVSPropertyOp32
 70
     1
  0
XRECORD
  5
43D
102
{ACAD_REACTORS
330
43C
102
}
330
43C
100
AcDbXrecord
280
     1
102
RTVSPropertyOp0
 70
     1
102
RTVSPropertyOp1
 70
     1
102
RTVSPropertyOp2
 70
     1
102
RTVSPropertyOp3
 70
     1
102
RTVSPropertyOp4
 70
     1
102
RTVSPropertyOp5
 70
     1
102
RTVSPropertyOp6
 70
     1
102
RTVSPropertyOp7
 70
     1
102
RTVSPropertyOp8
 70
     1
102
RTVSPropertyOp9
 70
     1
102
RTVSPropertyOp10
 70
     1
102
RTVSPropertyOp11
 70
     1
102
RTVSPropertyOp12
 70
     1
102
RTVSPropertyOp13
 70
     1
102
RTVSPropertyOp14
 70
     1
102
RTVSPropertyOp15
 70
     1
102
RTVSPropertyOp16
 70
     1
102
RTVSPropertyOp17
 70
     1
102
RTVSPropertyOp18
 70
     1
102
RTVSPropertyOp19
 70
     1
102
RTVSPropertyOp20
 70
     1
102
RTVSPropertyOp21
 70
     1
102
RTVSPropertyOp22
 70
     1
102
RTVSPropertyOp23
 70
     1
102
RTVSPropertyOp24
 70
     1
102
RTVSPropertyOp25
 70
     1
102
RTVSPropertyOp26
 70
     1
102
RTVSPropertyOp27
 70
     1
102
RTVSPropertyOp28
 70
     1
102
RTVSPropertyOp29
 70
     1
102
RTVSPropertyOp30
 70
     1
102
RTVSPropertyOp31
 70
     1
102
RTVSPropertyOp32
 70
     1
  0
XRECORD
  5
43F
102
{ACAD_REACTORS
330
43E
102
}
330
43E
100
AcDbXrecord
280
     1
102
RTVSPropertyOp0
 70
     1
102
RTVSPropertyOp1
 70
     1
102
RTVSPropertyOp2
 70
     1
102
RTVSPropertyOp3
 70
     1
102
RTVSPropertyOp4
 70
     1
102
RTVSPropertyOp5
 70
     1
102
RTVSPropertyOp6
 70
     1
102
RTVSPropertyOp7
 70
     1
102
RTVSPropertyOp8
 70
     1
102
RTVSPropertyOp9
 70
     1
102
RTVSPropertyOp10
 70
     1
102
RTVSPropertyOp11
 70
     1
102
RTVSPropertyOp12
 70
     1
102
RTVSPropertyOp13
 70
     1
102
RTVSPropertyOp14
 70
     1
102
RTVSPropertyOp15
 70
     1
102
RTVSPropertyOp16
 70
     1
102
RTVSPropertyOp17
 70
     1
102
RTVSPropertyOp18
 70
     1
102
RTVSPropertyOp19
 70
     1
102
RTVSPropertyOp20
 70
     1
102
RTVSPropertyOp21
 70
     1
102
RTVSPropertyOp22
 70
     1
102
RTVSPropertyOp23
 70
     1
102
RTVSPropertyOp24
 70
     1
102
RTVSPropertyOp25
 70
     1
102
RTVSPropertyOp26
 70
     1
102
RTVSPropertyOp27
 70
     1
102
RTVSPropertyOp28
 70
     1
102
RTVSPropertyOp29
 70
     1
102
RTVSPropertyOp30
 70
     1
102
RTVSPropertyOp31
 70
     1
102
RTVSPropertyOp32
 70
     1
  0
XRECORD
  5
453
102
{ACAD_REACTORS
330
452
102
}
330
452
100
AcDbXrecord
280
     1
102
RTVSPropertyOp0
 70
     1
102
RTVSPropertyOp1
 70
     1
102
RTVSPropertyOp2
 70
     1
102
RTVSPropertyOp3
 70
     1
102
RTVSPropertyOp4
 70
     1
102
RTVSPropertyOp5
 70
     1
102
RTVSPropertyOp6
 70
     1
102
RTVSPropertyOp7
 70
     1
102
RTVSPropertyOp8
 70
     1
102
RTVSPropertyOp9
 70
     1
102
RTVSPropertyOp10
 70
     1
102
RTVSPropertyOp11
 70
     1
102
RTVSPropertyOp12
 70
     1
102
RTVSPropertyOp13
 70
     1
102
RTVSPropertyOp14
 70
     1
102
RTVSPropertyOp15
 70
     1
102
RTVSPropertyOp16
 70
     1
102
RTVSPropertyOp17
 70
     1
102
RTVSPropertyOp18
 70
     1
102
RTVSPropertyOp19
 70
     1
102
RTVSPropertyOp20
 70
     1
102
RTVSPropertyOp21
 70
     1
102
RTVSPropertyOp22
 70
     1
102
RTVSPropertyOp23
 70
     1
102
RTVSPropertyOp24
 70
     1
102
RTVSPropertyOp25
 70
     1
102
RTVSPropertyOp26
 70
     1
102
RTVSPropertyOp27
 70
     1
102
RTVSPropertyOp28
 70
     1
102
RTVSPropertyOp29
 70
     1
102
RTVSPropertyOp30
 70
     1
102
RTVSPropertyOp31
 70
     1
102
RTVSPropertyOp32
 70
     1
  0
XRECORD
  5
449
102
{ACAD_REACTORS
330
448
102
}
330
448
100
AcDbXrecord
280
     1
102
RTVSPropertyOp0
 70
     1
102
RTVSPropertyOp1
 70
     1
102
RTVSPropertyOp2
 70
     1
102
RTVSPropertyOp3
 70
     1
102
RTVSPropertyOp4
 70
     1
102
RTVSPropertyOp5
 70
     1
102
RTVSPropertyOp6
 70
     1
102
RTVSPropertyOp7
 70
     1
102
RTVSPropertyOp8
 70
     1
102
RTVSPropertyOp9
 70
     1
102
RTVSPropertyOp10
 70
     1
102
RTVSPropertyOp11
 70
     1
102
RTVSPropertyOp12
 70
     1
102
RTVSPropertyOp13
 70
     1
102
RTVSPropertyOp14
 70
     1
102
RTVSPropertyOp15
 70
     1
102
RTVSPropertyOp16
 70
     1
102
RTVSPropertyOp17
 70
     1
102
RTVSPropertyOp18
 70
     1
102
RTVSPropertyOp19
 70
     1
102
RTVSPropertyOp20
 70
     1
102
RTVSPropertyOp21
 70
     1
102
RTVSPropertyOp22
 70
     1
102
RTVSPropertyOp23
 70
     1
102
RTVSPropertyOp24
 70
     1
102
RTVSPropertyOp25
 70
     1
102
RTVSPropertyOp26
 70
     1
102
RTVSPropertyOp27
 70
     1
102
RTVSPropertyOp28
 70
     1
102
RTVSPropertyOp29
 70
     1
102
RTVSPropertyOp30
 70
     1
102
RTVSPropertyOp31
 70
     1
102
RTVSPropertyOp32
 70
     1
  0
XRECORD
  5
451
102
{ACAD_REACTORS
330
450
102
}
330
450
100
AcDbXrecord
280
     1
102
RTVSPropertyOp0
 70
     1
102
RTVSPropertyOp1
 70
     1
102
RTVSPropertyOp2
 70
     1
102
RTVSPropertyOp3
 70
     1
102
RTVSPropertyOp4
 70
     1
102
RTVSPropertyOp5
 70
     1
102
RTVSPropertyOp6
 70
     1
102
RTVSPropertyOp7
 70
     1
102
RTVSPropertyOp8
 70
     1
102
RTVSPropertyOp9
 70
     1
102
RTVSPropertyOp10
 70
     1
102
RTVSPropertyOp11
 70
     1
102
RTVSPropertyOp12
 70
     1
102
RTVSPropertyOp13
 70
     1
102
RTVSPropertyOp14
 70
     1
102
RTVSPropertyOp15
 70
     1
102
RTVSPropertyOp16
 70
     1
102
RTVSPropertyOp17
 70
     1
102
RTVSPropertyOp18
 70
     1
102
RTVSPropertyOp19
 70
     1
102
RTVSPropertyOp20
 70
     1
102
RTVSPropertyOp21
 70
     1
102
RTVSPropertyOp22
 70
     1
102
RTVSPropertyOp23
 70
     1
102
RTVSPropertyOp24
 70
     1
102
RTVSPropertyOp25
 70
     1
102
RTVSPropertyOp26
 70
     1
102
RTVSPropertyOp27
 70
     1
102
RTVSPropertyOp28
 70
     1
102
RTVSPropertyOp29
 70
     1
102
RTVSPropertyOp30
 70
     1
102
RTVSPropertyOp31
 70
     1
102
RTVSPropertyOp32
 70
     1
  0
ENDSEC
  0
EOF
